<?xml version="1.0" standalone="no"?>
<!DOCTYPE svg PUBLIC "-//W3C//DTD SVG 1.1//EN" "http://www.w3.org/Graphics/SVG/1.1/DTD/svg11.dtd" >
<svg xmlns="http://www.w3.org/2000/svg">
<metadata>
<json>
<![CDATA[
{
	"fontFamily": "tableeditor",
	"designer": "Tekanewa Scripts",
	"majorVersion": 1,
	"minorVersion": 0,
	"version": "Version 1.0",
	"fontId": "tableeditor",
	"psName": "tableeditor",
	"subFamily": "Regular",
	"fullName": "tableeditor",
	"description": "Font generated by IcoMoon."
}
]]>
</json>
</metadata>
<defs>
<font id="tableeditor" horiz-adv-x="1024">
<font-face units-per-em="1024" ascent="1024" descent="0" />
<missing-glyph horiz-adv-x="1024" />
<glyph unicode="&#x20;" horiz-adv-x="0" d="" />
<glyph unicode="&#xa5;" glyph-name="currency12" d="M700.727 972.703h209.697q8.388 0 10.485-4.194t-4.613-10.904l-305.318-305.318q-5.033-5.033-9.227-15.098h224.795q8.388 0 10.904-5.033t-2.516-11.743l-100.655-134.206q-5.033-6.711-15.098-11.743t-18.453-5.033h-104.849v-83.878h230.667q8.388 0 10.904-5.033t-2.516-11.743l-100.655-134.206q-5.033-6.711-15.098-11.743t-18.453-5.033h-104.849v-145.949q0-9.227-6.291-15.518t-15.518-6.291h-124.14q-9.227 0-15.518 6.291t-6.291 15.518v145.949h-230.667q-8.388 0-10.904 5.033t2.516 11.743l100.655 134.206q5.033 6.711 15.098 11.743t18.453 5.033h104.849v83.878h-230.667q-8.388 0-10.904 5.033t2.516 11.743l100.655 134.206q5.033 6.711 15.098 11.743t18.453 5.033h98.977q-4.194 10.065-9.227 15.098l-305.318 305.318q-6.711 6.711-4.613 10.904t10.485 4.194h209.697q20.969 0 36.068-15.098l137.562-137.562q6.711-6.711 15.098-6.711t15.098 6.711l137.562 137.562q15.098 15.098 36.068 15.098z" />
<glyph unicode="&#x20ac;" glyph-name="currency13" d="M632.949 1007.854q203.261 0 297.332-158.745 50.395-87.352 55.435-175.544h-152.026q0 37.796-14.698 69.294t-36.537 51.655-48.715 34.017-50.816 20.158-43.256 6.299q-15.958 0-34.017-4.619t-41.576-17.218-44.516-31.917-41.156-52.495-32.757-75.173h318.33l-83.992-83.992h-251.977q-5.040-41.996-5.040-83.992h341.008l-83.992-83.992h-251.977q7.559-62.155 27.717-110.87t44.096-76.433 51.655-45.776 49.556-24.358 39.477-6.299q18.478 0 42.416 6.299t50.816 20.578 48.715 34.437 36.537 51.235 14.698 67.194h146.146q-25.198-143.627-107.51-233.499-89.872-98.271-230.138-98.271-173.024 0-272.135 132.708-30.237 40.316-57.955 111.709t-37.796 171.344h-182.263l83.992 83.992h94.071q0.84 39.477 5.040 83.992h-183.103l83.992 83.992h112.55q16.799 73.073 42.836 128.928t52.075 86.932q98.271 118.429 249.457 118.429z" />
<glyph unicode="&#x20bd;" glyph-name="currency14" d="M367.52 1009.6h294q56.28 0 100.8-10.92t72.24-26.040 47.88-41.58 29.4-47.46 14.28-54.18 5.46-50.82 0.42-47.88v-27.72q0-30.24-0.42-47.88t-5.46-51.24-14.28-54.6-29.4-47.88-47.88-42.42-72.24-26.46-100.8-10.92h-149.52l-1.68-84h241.92q8.4 0 10.92-5.040t-2.52-11.76l-100.8-134.4q-5.040-6.72-15.12-11.76t-18.48-5.040h-115.92v-147q0-9.24-4.62-15.12t-13.020-5.88h-125.16q-8.4 0-14.7 6.3t-6.3 14.7v147h-224.28q-8.4 0-10.92 5.040t2.52 11.76l100.8 134.4q5.040 6.72 15.12 11.76t18.48 5.040h98.28v84h-224.28q-8.4 0-10.92 5.040t2.52 11.76l100.8 134.4q5.040 6.72 15.12 11.76t18.48 5.040h98.28v399q0 8.4 6.3 14.7t14.7 6.3zM512 841.6v-252h170.52q53.76 0 72.66 27.72t18.9 99.96q0 70.56-18.9 97.44t-72.66 26.88h-170.52z" />
<glyph unicode="&#xe148;" glyph-name="currency15" d="M596.033 1034.218v-65.546q31.933-4.202 60.925-12.185t63.446-26.471 59.664-44.958 43.697-70.588 20.168-99.58h-133.613q-3.361 30.252-8.824 49.58t-17.647 37.815-33.613 29.832-54.202 17.227v-257.983l53.781-10.924q28.571-5.882 53.781-13.866t58.823-26.891 56.723-44.118 39.916-67.227 16.807-94.117q0-116.806-74.79-188.236t-205.042-81.512v-64.706h-84.033v66.386q-126.050 13.445-199.16 86.554-33.613 33.613-44.118 78.572t-13.026 117.227h116.806q4.202-64.706 40.757-105.882t98.74-54.622v281.513l-22.689 6.723q-38.655 11.765-66.386 22.269t-60.504 30.252-52.941 43.697-33.613 60.925-13.445 82.353q0 58.823 21.008 105.882t56.723 77.311 79.412 47.899 92.437 22.689v64.706h84.033zM512 619.092v230.252q-24.37-3.361-42.017-9.244t-35.294-18.068-26.471-34.874-8.824-54.622q0-24.37 5.882-42.437t13.866-28.571 23.95-18.908 26.471-11.765 31.513-8.403q7.563-2.521 10.924-3.361zM596.033 445.142v-260.504q18.487 1.681 35.715 5.463t37.815 13.026 34.874 22.689 24.37 35.294 10.084 50-10.505 50-31.933 37.395-44.538 26.050-55.883 20.589z" />
<glyph unicode="&#xe149;" glyph-name="currency16" d="M479.29 974.010q70.453 0 134.615-33.549t103.582-91.84 39.42-123.712h-128.324q0 33.549-16.355 59.968t-41.517 40.678-49.904 21.807-46.549 7.548q-31.032 0-66.259-12.161t-52.001-29.774q-34.388-36.904-34.388-84.711 0-21.807 11.323-52.839t22.226-51.162 31.032-55.356q5.032-7.548 7.548-11.742h202.132v-83.872h-165.228q6.71-41.936-2.096-96.453t-26.42-79.679q-37.742-52.001-83.033-93.936 28.516 8.387 69.614 14.677t59.55 6.29q26.839 0.838 85.55-13.419t87.227-14.259q69.614 0 114.066 25.162l41.936-123.292q-26-15.935-48.646-25.581t-46.129-13.001-35.226-3.774-38.581-0.42q-19.291 0-63.743 14.259t-93.098 27.258-80.517 9.645q-32.71-2.516-68.775-13.419t-56.194-20.968l-19.291-9.226-46.129 121.614q3.355 2.516 13.419 9.226t13.001 8.807 10.903 7.548 13.001 10.065 12.161 11.742 14.677 15.517q40.259 46.129 45.291 106.099t-25.162 119.518h-185.358v83.872h139.227q-19.291 39.42-36.904 87.227-5.871 16.775-10.065 34.807t-5.032 46.549 5.032 55.775 24.742 59.13 49.065 59.55q81.356 73.807 220.584 73.807z" />
<glyph unicode="&#xe150;" glyph-name="unsorted2" d="M344.139 257.063h125.895q17.625 0 20.982-9.232t-8.393-20.982l-193.040-209.824q-11.751-12.589-29.376-12.589t-29.376 12.589l-193.040 209.824q-11.751 11.751-8.393 20.982t20.982 9.232h125.895v755.371h167.861v-755.371zM793.166 999.005l193.040-208.986q11.751-11.751 8.393-20.564t-20.982-8.813h-125.895v-755.371h-167.861v755.371h-125.895q-17.625 0-20.982 8.813t8.393 20.564l193.040 208.986q11.751 12.589 29.376 12.589t29.376-12.589z" />
<glyph unicode="&#xe151;" glyph-name="sort-alpha-asc3" d="M847.72 608.519h-83.93v83.93h-83.93v-83.93h-83.93v419.651h251.79v-419.651zM344.139 272.799h125.895q17.625 0 20.982-9.232t-8.393-20.982l-193.040-209.824q-11.75-12.589-29.376-12.589t-29.376 12.589l-193.040 209.824q-11.75 11.75-8.393 20.982t20.982 9.232h125.895v755.371h167.861v-755.371zM680.699 944.24v-167.861h83.93v167.861h-83.93zM847.72 314.765l-167.861-209.824h167.861v-83.93h-251.79v125.895l167.861 209.824h-167.861v83.93h251.79v-125.895z" />
<glyph unicode="&#xe152;" glyph-name="sort-alpha-desc3" d="M344.139 272.642h125.895q17.625 0 20.982-9.232t-8.393-20.982l-193.040-209.824q-11.75-12.589-29.376-12.589t-29.376 12.589l-193.040 209.824q-11.75 11.75-8.393 20.982t20.982 9.232h125.895v755.372h167.861v-755.372zM847.72 902.119l-167.861-209.824h167.861v-83.93h-251.79v125.895l167.861 209.824h-167.861v83.93h251.79v-125.895zM847.72 20.852h-83.93v83.93h-83.93v-83.93h-83.93v419.651h251.79v-419.651zM680.699 356.572v-167.861h83.93v167.861h-83.93z" />
<glyph unicode="&#xe153;" glyph-name="sort-number-asc3" d="M343.997 269.599h126.002q17.64 0 21-9.24t-8.4-21l-193.203-210.002q-11.76-12.6-29.401-12.6t-29.401 12.6l-193.203 210.002q-11.76 11.76-8.4 21t21 9.24h126.002v756.010h168.003v-756.010zM848.004 605.603h-84.001v336.004h-84.001v84.001h168.003v-420.006zM932.006 17.596h-84.001v84.001h-168.003v336.004h252.003v-420.006zM764.843 353.6v-168.003h84.001v168.003h-84.001z" />
<glyph unicode="&#xe154;" glyph-name="sort-number-desc3" d="M343.997 269.599h126.002q17.64 0 21-9.24t-8.4-21l-193.203-210.002q-11.76-12.6-29.401-12.6t-29.401 12.6l-193.203 210.002q-11.76 11.76-8.4 21t21 9.24h126.002v756.010h168.003v-756.010zM932.006 605.603h-84.001v84.001h-168.003v336.004h252.003v-420.006zM764.843 941.609v-168.003h84.001v168.003h-84.001zM848.004 17.596h-84.001v336.004h-84.001v84.001h168.003v-420.006z" />
<glyph unicode="&#xe155;" glyph-name="sort-asc3" d="M343.997 269.599h126.002q17.64 0 21-9.24t-8.4-21l-193.203-210.002q-11.76-12.6-29.401-12.6t-29.401 12.6l-193.203 210.002q-11.76 11.76-8.4 21t21 9.24h126.002v756.010h168.003v-756.010zM764.003 857.607h-168.003v168.003h168.003v-168.003zM848.004 605.603h-252.003v168.003h252.003v-168.003zM932.006 353.6h-336.004v168.003h336.004v-168.003zM1016.007 101.597h-420.006v168.003h420.006v-168.003z" />
<glyph unicode="&#xe156;" glyph-name="sort-desc3" d="M343.997 269.599h126.002q17.64 0 21-9.24t-8.4-21l-193.203-210.002q-11.76-12.6-29.401-12.6t-29.401 12.6l-193.203 210.002q-11.76 11.76-8.4 21t21 9.24h126.002v756.010h168.003v-756.010zM1016.007 857.607h-420.006v168.003h420.006v-168.003zM932.006 605.603h-336.004v168.003h336.004v-168.003zM848.004 353.6h-252.003v168.003h252.003v-168.003zM764.003 101.597h-168.003v168.003h168.003v-168.003z" />
<glyph unicode="&#xe600;" glyph-name="hash1" data-tags="hash1" horiz-adv-x="896" d="M896 640v128h-160.128l32 256h-128l-32-256h-255.936l32 256h-128l-32-256h-223.936v-128h207.936l-31.936-256h-176v-128h160l-32-256h128l32 256h255.936l-32-256h128.064l32 256h224v128h-208l31.872 256h176.128zM559.936 384h-255.936l31.936 256h255.936l-31.936-256z" />
<glyph unicode="&#xe601;" glyph-name="comment4" data-tags="comment4" horiz-adv-x="896" d="M768 896h-640c-62 0-128-64-128-128v-384c0-128 128-128 128-128h64v-256l256 256c0 0 258 0 320 0s128 68 128 128v384c0 62-64 128-128 128z" />
<glyph unicode="&#xe602;" glyph-name="comment5" data-tags="comment5" d="M512 832c-54.932 0-107.988-8.662-157.694-25.742-46.712-16.054-88.306-38.744-123.628-67.444-66.214-53.798-102.678-122.984-102.678-194.814 0-40.298 11.188-79.378 33.252-116.152 22.752-37.92 56.982-72.586 98.988-100.252 30.356-19.992 50.78-51.948 56.176-87.894 1.8-11.984 2.928-24.088 3.37-36.124 7.47 6.194 14.75 12.846 21.88 19.976 24.154 24.152 56.78 37.49 90.502 37.49 5.368 0 10.762-0.336 16.156-1.024 20.974-2.666 42.398-4.020 63.676-4.020 54.934 0 107.988 8.66 157.694 25.742 46.712 16.054 88.306 38.744 123.628 67.444 66.214 53.796 102.678 122.984 102.678 194.814s-36.464 141.016-102.678 194.814c-35.322 28.698-76.916 51.39-123.628 67.444-49.706 17.080-102.76 25.742-157.694 25.742zM512 960v0c282.77 0 512-186.25 512-416 0-229.752-229.23-416-512-416-27.156 0-53.81 1.734-79.824 5.044-109.978-109.978-241.25-129.7-368.176-132.596v26.916c68.536 33.578 128 94.74 128 164.636 0 9.754-0.758 19.33-2.164 28.696-115.796 76.264-189.836 192.754-189.836 323.304 0 229.75 229.23 416 512 416z" />
<glyph unicode="&#xe603;" glyph-name="comment6" data-tags="comment6" d="M512 960c282.77 0 512-186.25 512-416 0-229.752-229.23-416-512-416-27.156 0-53.81 1.734-79.824 5.044-109.978-109.978-241.25-129.7-368.176-132.596v26.916c68.536 33.578 128 94.74 128 164.636 0 9.754-0.758 19.33-2.164 28.696-115.796 76.264-189.836 192.754-189.836 323.304 0 229.75 229.23 416 512 416z" />
<glyph unicode="&#xe604;" glyph-name="minus2" data-tags="minus2" d="M0 608v-192c0-17.672 14.328-32 32-32h960c17.672 0 32 14.328 32 32v192c0 17.672-14.328 32-32 32h-960c-17.672 0-32-14.328-32-32z" />
<glyph unicode="&#xe605;" glyph-name="trash3" data-tags="trash3" horiz-adv-x="768" d="M704 896h-256c0 0 0 24.057 0 32 0 17.673-14.327 32-32 32s-32-14.327-32-32c0-17.673 0-32 0-32h-256c-35.346 0-64-28.654-64-64v-64c0-35.346 28.654-64 64-64v-576c0-35.346 28.654-64 64-64h448c35.346 0 64 28.654 64 64v576c35.346 0 64 28.654 64 64v64c0 35.346-28.654 64-64 64zM640 160c0-17.673-14.327-32-32-32h-384c-17.673 0-32 14.327-32 32v544h64v-480c0-17.673 14.327-32 32-32s32 14.327 32 32l0.387 480h63.613v-480c0-17.673 14.327-32 32-32s32 14.327 32 32l0.387 480h64l-0.387-480c0-17.673 14.327-32 32-32s32 14.327 32 32v480h64v-544zM704 784c0-8.837-7.163-16-16-16h-544c-8.837 0-16 7.163-16 16v32c0 8.837 7.163 16 16 16h544c8.837 0 16-7.163 16-16v-32z" />
<glyph unicode="&#xe606;" glyph-name="trash4" data-tags="trash4" d="M128 704v-640c0-35.2 28.8-64 64-64h576c35.2 0 64 28.8 64 64v640h-704zM320 128h-64v448h64v-448zM448 128h-64v448h64v-448zM576 128h-64v448h64v-448zM704 128h-64v448h64v-448zM848 896h-208v80c0 26.4-21.6 48-48 48h-224c-26.4 0-48-21.6-48-48v-80h-208c-26.4 0-48-21.6-48-48v-80h832v80c0 26.4-21.6 48-48 48zM576 896h-192v63.198h192v-63.198z" />
<glyph unicode="&#xe607;" glyph-name="settings2" data-tags="settings2" d="M933.79 413.75c-53.726 93.054-21.416 212.304 72.152 266.488l-100.626 174.292c-28.75-16.854-62.176-26.518-97.846-26.518-107.536 0-194.708 87.746-194.708 195.99h-201.258c0.266-33.41-8.074-67.282-25.958-98.252-53.724-93.056-173.156-124.702-266.862-70.758l-100.624-174.292c28.97-16.472 54.050-40.588 71.886-71.478 53.638-92.908 21.512-211.92-71.708-266.224l100.626-174.292c28.65 16.696 61.916 26.254 97.4 26.254 107.196 0 194.144-87.192 194.7-194.958h201.254c-0.086 33.074 8.272 66.57 25.966 97.218 53.636 92.906 172.776 124.594 266.414 71.012l100.626 174.29c-28.78 16.466-53.692 40.498-71.434 71.228zM512 304.668c-114.508 0-207.336 92.824-207.336 207.334 0 114.508 92.826 207.334 207.336 207.334 114.508 0 207.332-92.826 207.332-207.334-0.002-114.51-92.824-207.334-207.332-207.334z" />
<glyph unicode="&#xe608;" glyph-name="settings4" data-tags="settings4" d="M363.722 301.948l41.298 57.816-45.254 45.256-57.818-41.296c-10.722 5.994-22.204 10.774-34.266 14.192l-11.682 70.084h-64l-11.68-70.086c-12.062-3.418-23.544-8.198-34.266-14.192l-57.818 41.298-45.256-45.256 41.298-57.816c-5.994-10.72-10.774-22.206-14.192-34.266l-70.086-11.682v-64l70.086-11.682c3.418-12.060 8.198-23.544 14.192-34.266l-41.298-57.816 45.254-45.256 57.818 41.296c10.722-5.994 22.204-10.774 34.266-14.192l11.682-70.084h64l11.68 70.086c12.062 3.418 23.544 8.198 34.266 14.192l57.818-41.296 45.254 45.256-41.298 57.816c5.994 10.72 10.774 22.206 14.192 34.266l70.088 11.68v64l-70.086 11.682c-3.418 12.060-8.198 23.544-14.192 34.266zM224 160c-35.348 0-64 28.654-64 64s28.652 64 64 64 64-28.654 64-64-28.652-64-64-64zM1024 640v64l-67.382 12.25c-1.242 8.046-2.832 15.978-4.724 23.79l57.558 37.1-24.492 59.128-66.944-14.468c-4.214 6.91-8.726 13.62-13.492 20.13l39.006 56.342-45.256 45.254-56.342-39.006c-6.512 4.766-13.22 9.276-20.13 13.494l14.468 66.944-59.128 24.494-37.1-57.558c-7.812 1.892-15.744 3.482-23.79 4.724l-12.252 67.382h-64l-12.252-67.382c-8.046-1.242-15.976-2.832-23.79-4.724l-37.098 57.558-59.128-24.492 14.468-66.944c-6.91-4.216-13.62-8.728-20.13-13.494l-56.342 39.006-45.254-45.254 39.006-56.342c-4.766-6.51-9.278-13.22-13.494-20.13l-66.944 14.468-24.492-59.128 57.558-37.1c-1.892-7.812-3.482-15.742-4.724-23.79l-67.384-12.252v-64l67.382-12.25c1.242-8.046 2.832-15.978 4.724-23.79l-57.558-37.1 24.492-59.128 66.944 14.468c4.216-6.91 8.728-13.618 13.494-20.13l-39.006-56.342 45.254-45.256 56.342 39.006c6.51-4.766 13.22-9.276 20.13-13.492l-14.468-66.944 59.128-24.492 37.102 57.558c7.81-1.892 15.742-3.482 23.788-4.724l12.252-67.384h64l12.252 67.382c8.044 1.242 15.976 2.832 23.79 4.724l37.1-57.558 59.128 24.492-14.468 66.944c6.91 4.216 13.62 8.726 20.13 13.492l56.342-39.006 45.256 45.256-39.006 56.342c4.766 6.512 9.276 13.22 13.492 20.13l66.944-14.468 24.492 59.13-57.558 37.1c1.892 7.812 3.482 15.742 4.724 23.79l67.382 12.25zM672 532.8c-76.878 0-139.2 62.322-139.2 139.2s62.32 139.2 139.2 139.2 139.2-62.322 139.2-139.2c0-76.878-62.32-139.2-139.2-139.2z" />
<glyph unicode="&#xe609;" glyph-name="wrench1" data-tags="wrench1" d="M1002.934 206.124l-460.552 394.76c21.448 40.298 33.618 86.282 33.618 135.116 0 159.058-128.942 288-288 288-29.094 0-57.172-4.332-83.646-12.354l166.39-166.39c24.89-24.89 24.89-65.62 0-90.51l-101.49-101.49c-24.89-24.89-65.62-24.89-90.51 0l-166.39 166.39c-8.022-26.474-12.354-54.552-12.354-83.646 0-159.058 128.942-288 288-288 48.834 0 94.818 12.17 135.116 33.62l394.76-460.552c22.908-26.724 62.016-28.226 86.904-3.338l101.492 101.492c24.888 24.888 23.386 63.994-3.338 86.902z" />
<glyph unicode="&#xe60a;" glyph-name="edit3" data-tags="edit3" d="M965.536 782.656l-10.048-10.048-183.232 183.328 10.016 10.016c0 0 43.872 58.016 106.272 58.016 27.488 0 58.624-11.296 91.168-43.84 107.328-107.328-14.176-197.472-14.176-197.472zM895.328 712.416l-623.968-624.192-271.36-88.224 88.192 271.52v0.096h0.064l623.872 624.16 8.064-8.096zM88.32 88.352l135.584 39.008-92.608 98.624-42.976-137.632z" />
<glyph unicode="&#xe60b;" glyph-name="edit4" data-tags="edit4" horiz-adv-x="896" d="M704 960l-128-128 192-192 128 128-192 192zM0 256l0.688-192.562 191.312 0.562 512 512-192 192-512-512zM192 128h-128v128h64v-64h64v-64z" />
<glyph unicode="&#xe60c;" glyph-name="edit5" data-tags="edit5" d="M384 384l128 64 448 448-64 64-448-448-64-128zM289.3 156.902c-31.632 66.728-65.666 100.762-132.396 132.394l99.096 272.792 128 77.912 384 384h-192l-384-384-192-640 640 192 384 384v192l-384-384-77.912-128z" />
<glyph unicode="&#xe60d;" glyph-name="edit6" data-tags="edit6" d="M864 1024c88.364 0 160-71.634 160-160 0-36.020-11.91-69.258-32-96l-64-64-224 224 64 64c26.742 20.090 59.978 32 96 32zM64 288l-64-288 288 64 592 592-224 224-592-592zM715.578 660.422l-448-448-55.156 55.156 448 448 55.156-55.156z" />
<glyph unicode="&#xe60e;" glyph-name="code3" data-tags="code3" horiz-adv-x="1280" d="M832 288l96-96 320 320-320 320-96-96 224-224zM448 736l-96 96-320-320 320-320 96 96-224 224zM701.298 873.481l69.468-18.944-191.987-704.026-69.468 18.944 191.987 704.026z" />
<glyph unicode="&#xe60f;" glyph-name="code4" data-tags="code4" d="M576 288l96-96 320 320-320 320-96-96 224-224zM448 736l-96 96-320-320 320-320 96 96-224 224z" />
<glyph unicode="&#xe610;" glyph-name="search2" data-tags="search2" d="M644.256 1024c-209.248 0-379.52-170.24-379.52-379.616 0-50.112 10.24-97.632 27.872-141.376l-292.608-292.64 210.24-210.368 292.736 292.864c43.744-17.76 91.264-28 141.248-28 209.376 0 379.744 170.24 379.744 379.456 0.032 209.44-170.336 379.68-379.712 379.68zM644.256 392.736c-138.624 0-251.616 112.992-251.616 251.584 0 138.752 112.992 251.744 251.616 251.744 138.88 0 251.872-112.992 251.872-251.744 0-138.56-112.992-251.584-251.872-251.584z" />
<glyph unicode="&#xe611;" glyph-name="search4" data-tags="search4" d="M992.262 152.604l-242.552 206.294c-25.074 22.566-51.89 32.926-73.552 31.926 57.256 67.068 91.842 154.078 91.842 249.176 0 212.078-171.922 384-384 384-212.076 0-384-171.922-384-384s171.922-384 384-384c95.098 0 182.108 34.586 249.176 91.844-1-21.662 9.36-48.478 31.926-73.552l206.294-242.552c35.322-39.246 93.022-42.554 128.22-7.356s31.892 92.898-7.354 128.22zM384 384c-141.384 0-256 114.616-256 256s114.616 256 256 256 256-114.616 256-256-114.614-256-256-256z" />
<glyph unicode="&#xe612;" glyph-name="sort-number-desc1" data-tags="sort-number-desc1" d="M320 256v768h-128v-768h-160l224-224 224 224h-160zM864 0c-17.674 0-32 14.328-32 32v352h-32c-17.674 0-32 14.328-32 32s14.326 32 32 32h64c17.674 0 32-14.328 32-32v-384c0-17.672-14.326-32-32-32zM928 1024h-192c-17.674 0-32-14.326-32-32v-192c0-17.674 14.326-32 32-32h160v-128h-160c-17.674 0-32-14.326-32-32s14.326-32 32-32h192c17.674 0 32 14.326 32 32v384c0 17.674-14.326 32-32 32zM768 960h128v-128h-128v128z" />
<glyph unicode="&#xe613;" glyph-name="sort-number-asc1" data-tags="sort-number-asc1" d="M320 256v768h-128v-768h-160l224-224 224 224h-160zM864 576c-17.674 0-32 14.328-32 32v352h-32c-17.674 0-32 14.328-32 32s14.326 32 32 32h64c17.674 0 32-14.328 32-32v-384c0-17.672-14.326-32-32-32zM928 448h-192c-17.674 0-32-14.326-32-32v-192c0-17.674 14.326-32 32-32h160v-128h-160c-17.674 0-32-14.326-32-32s14.326-32 32-32h192c17.674 0 32 14.326 32 32v384c0 17.674-14.326 32-32 32zM768 384h128v-128h-128v128z" />
<glyph unicode="&#xe614;" glyph-name="sort-alpha-desc1" data-tags="sort-alpha-desc1" d="M320 256v768h-128v-768h-160l224-224 224 224h-160zM928 576h-256c-11.8 0-22.644 6.496-28.214 16.9-5.566 10.406-4.958 23.030 1.59 32.85l222.832 334.25h-196.208c-17.672 0-32 14.328-32 32s14.328 32 32 32h256c11.8 0 22.644-6.496 28.214-16.9 5.566-10.406 4.958-23.030-1.59-32.85l-222.83-334.25h196.206c17.672 0 32-14.328 32-32s-14.328-32-32-32zM1020.622 46.31l-192.002 384c-5.42 10.842-16.502 17.69-28.622 17.69-12.122 0-23.202-6.848-28.624-17.69l-191.996-384c-7.904-15.806-1.496-35.030 14.31-42.932 4.594-2.296 9.476-3.386 14.288-3.386 11.736 0 23.040 6.484 28.644 17.698l55.158 110.31h216.446l55.156-110.31c7.902-15.806 27.124-22.21 42.932-14.31 15.806 7.902 22.214 27.124 14.31 42.93zM723.778 192l76.22 152.446 76.226-152.446h-152.446z" />
<glyph unicode="&#xe615;" glyph-name="sort-alpha-asc1" data-tags="sort-alpha-asc1" d="M320 256v768h-128v-768h-160l224-224 224 224h-160zM928 0h-256c-11.8 0-22.644 6.496-28.214 16.9-5.566 10.404-4.958 23.030 1.59 32.85l222.832 334.25h-196.208c-17.672 0-32 14.328-32 32s14.328 32 32 32h256c11.8 0 22.644-6.496 28.214-16.9 5.566-10.404 4.958-23.030-1.59-32.85l-222.83-334.25h196.206c17.672 0 32-14.328 32-32s-14.328-32-32-32zM1020.622 622.314l-192.002 384c-5.42 10.842-16.502 17.69-28.622 17.69-12.122 0-23.202-6.848-28.624-17.69l-191.996-384c-7.904-15.806-1.496-35.030 14.31-42.932 4.594-2.296 9.476-3.386 14.288-3.386 11.736 0 23.040 6.484 28.644 17.698l55.156 110.31h216.446l55.156-110.31c7.902-15.806 27.124-22.21 42.932-14.31 15.808 7.902 22.216 27.124 14.312 42.93zM723.778 768.004l76.22 152.446 76.224-152.446h-152.444z" />
<glyph unicode="&#xe616;" glyph-name="sort-desc1" data-tags="sort-desc1" d="M320 256v768h-128v-768h-160l224-224 224 224h-160zM448 1024h576v-128h-576v128zM448 832h448v-128h-448v128zM448 640h320v-128h-320v128zM448 448h192v-128h-192v128z" />
<glyph unicode="&#xe617;" glyph-name="sort-asc1" data-tags="sort-asc1" d="M320 256v768h-128v-768h-160l224-224 224 224h-160zM448 448h576v-128h-576v128zM448 640h448v-128h-448v128zM448 832h320v-128h-320v128zM448 1024h192v-128h-192v128z" />
<glyph unicode="&#xe618;" glyph-name="text3" data-tags="text3" d="M896 1024h-768c-17.664 0-32-14.336-32-32v-192c0-17.664 14.336-32 32-32h32c17.664 0 32 14.336 32 32l64 96h192v-768l-160-64c-17.664 0-32-14.304-32-32s14.336-32 32-32h448c17.696 0 32 14.304 32 32s-14.304 32-32 32l-160 64v768h192l64-96c0-17.664 14.304-32 32-32h32c17.696 0 32 14.336 32 32v192c0 17.664-14.304 32-32 32z" />
<glyph unicode="&#xe619;" glyph-name="text4" data-tags="text4" d="M256 128v-128l-192 160 192 160v-128h512v128l192-160-192-160v128zM832 960v-256l-64 128h-192v-448h128v-64h-384v64h128v448h-192l-64-128v256z" />
<glyph unicode="&#xe61a;" glyph-name="text5" data-tags="text5" d="M896 256h128l-160-192-160 192h128v512h-128l160 192 160-192h-128zM640 960v-256l-64 128h-192v-704h128v-64h-384v64h128v704h-192l-64-128v256z" />
<glyph unicode="&#xe61b;" glyph-name="text52" data-tags="text5" d="M917.806 794.924c-22.212 30.292-53.174 65.7-87.178 99.704s-69.412 64.964-99.704 87.178c-51.574 37.82-76.592 42.194-90.924 42.194h-496c-44.112 0-80-35.888-80-80v-864c0-44.112 35.888-80 80-80h736c44.112 0 80 35.888 80 80v624c0 14.332-4.372 39.35-42.194 90.924zM785.374 849.374c30.7-30.7 54.8-58.398 72.58-81.374h-153.954v153.946c22.984-17.78 50.678-41.878 81.374-72.572zM896 80c0-8.672-7.328-16-16-16h-736c-8.672 0-16 7.328-16 16v864c0 8.672 7.328 16 16 16 0 0 495.956 0.002 496 0v-224c0-17.672 14.326-32 32-32h224v-624zM736 192h-448c-17.672 0-32 14.326-32 32s14.328 32 32 32h448c17.674 0 32-14.326 32-32s-14.326-32-32-32zM736 320h-448c-17.672 0-32 14.326-32 32s14.328 32 32 32h448c17.674 0 32-14.326 32-32s-14.326-32-32-32zM736 448h-448c-17.672 0-32 14.326-32 32s14.328 32 32 32h448c17.674 0 32-14.326 32-32s-14.326-32-32-32z" />
<glyph unicode="&#xe61c;" glyph-name="text62" data-tags="text6" d="M864 1024h-768c-52.8 0-96-43.2-96-96v-832c0-52.8 43.2-96 96-96h768c52.8 0 96 43.2 96 96v832c0 52.8-43.2 96-96 96zM832 128h-704v768h704v-768zM256 576h448v-64h-448zM256 448h448v-64h-448zM256 320h448v-64h-448zM256 704h448v-64h-448z" />
<glyph unicode="&#xe61d;" glyph-name="time1" data-tags="time1" d="M512 921.6c226.304 0 409.6-183.296 409.6-409.6s-183.296-409.6-409.6-409.6-409.6 183.296-409.6 409.6 183.296 409.6 409.6 409.6zM512 204.8c169.472 0 307.2 137.728 307.2 307.2s-137.728 307.2-307.2 307.2-307.2-137.728-307.2-307.2 137.728-307.2 307.2-307.2zM475.648 475.648c3.584-2.56 7.168-5.12 11.776-7.68l-1.024-1.024 230.4-108.544-155.136 163.328-49.664 246.272-49.664-246.272h0.512c0-1.024-0.512-2.56-1.024-4.608s-1.024-3.584-1.024-5.12c0-14.336 5.12-26.624 14.848-36.352z" />
<glyph unicode="&#xe61e;" glyph-name="time2" data-tags="time2" d="M512 896c-247.424 0-448-200.576-448-448s200.576-448 448-448 448 200.576 448 448-200.576 448-448 448zM512 88c-198.824 0-360 161.178-360 360 0 198.824 161.176 360 360 360 198.822 0 360-161.176 360-360 0-198.822-161.178-360-360-360zM934.784 736.826c16.042 28.052 25.216 60.542 25.216 95.174 0 106.040-85.96 192-192 192-61.818 0-116.802-29.222-151.92-74.596 131.884-27.236 245.206-105.198 318.704-212.578v0zM407.92 949.404c-35.116 45.374-90.102 74.596-151.92 74.596-106.040 0-192-85.96-192-192 0-34.632 9.174-67.122 25.216-95.174 73.5 107.38 186.822 185.342 318.704 212.578zM512 448v256h-64v-320h256v64z" />
<glyph unicode="&#xe61f;" glyph-name="calendar1" data-tags="calendar1" d="M768 819.2h153.6v-716.8h-819.2v716.8h153.6v51.2c0 42.496 34.304 76.8 76.8 76.8s76.8-34.304 76.8-76.8v-51.2h204.8v51.2c0 42.496 34.304 76.8 76.8 76.8s76.8-34.304 76.8-76.8v-51.2zM307.2 870.4v-128c0-14.336 11.264-25.6 25.6-25.6s25.6 11.264 25.6 25.6v128c0 14.336-11.264 25.6-25.6 25.6s-25.6-11.264-25.6-25.6zM665.6 870.4v-128c0-14.336 11.264-25.6 25.6-25.6s25.6 11.264 25.6 25.6v128c0 14.336-11.264 25.6-25.6 25.6s-25.6-11.264-25.6-25.6zM870.4 153.6v460.8h-716.8v-460.8h716.8zM358.4 204.8v358.4h-102.4v-358.4h102.4zM563.2 204.8v358.4h-102.4v-358.4h102.4zM768 204.8v358.4h-102.4v-358.4h102.4z" />
<glyph unicode="&#xe620;" glyph-name="calendar2" data-tags="calendar2" d="M768 819.2h153.6v-768h-819.2v768h153.6v51.2c0 20.992 7.68 38.912 22.528 54.272 14.848 14.848 33.28 22.528 54.272 22.528s39.424-7.68 54.272-22.528c14.848-15.36 22.528-33.28 22.528-54.272v-51.2h204.8v51.2c0 20.992 7.68 38.912 22.528 54.272 14.848 14.848 33.28 22.528 54.272 22.528s39.424-7.68 54.272-22.528c14.848-15.36 22.528-33.28 22.528-54.272v-51.2zM307.2 870.4v-128c0-7.168 2.56-13.312 7.68-18.432 4.608-4.608 10.752-7.168 17.92-7.168s13.312 2.56 17.92 7.168c5.12 5.12 7.68 11.264 7.68 18.432v128c0 7.168-2.56 13.312-7.68 17.92-4.608 5.12-10.752 7.68-17.92 7.68s-13.312-2.56-17.92-7.68c-5.12-4.608-7.68-10.752-7.68-17.92zM665.6 870.4v-128c0-7.168 2.56-13.312 7.168-18.432 5.12-4.608 11.264-7.168 18.432-7.168s13.312 2.56 18.432 7.168c4.608 5.12 7.168 11.264 7.168 18.432v128c0 7.168-2.56 13.312-7.168 17.92-5.12 5.12-11.264 7.68-18.432 7.68s-13.312-2.56-18.432-7.68c-4.608-4.608-7.168-10.752-7.168-17.92zM870.4 102.4v512h-716.8v-512h716.8zM358.4 563.2v-102.4h-102.4v102.4h102.4zM460.8 563.2h102.4v-102.4h-102.4v102.4zM665.6 460.8v102.4h102.4v-102.4h-102.4zM358.4 409.6v-102.4h-102.4v102.4h102.4zM460.8 409.6h102.4v-102.4h-102.4v102.4zM665.6 307.2v102.4h102.4v-102.4h-102.4zM358.4 256v-102.4h-102.4v102.4h102.4zM563.2 153.6h-102.4v102.4h102.4v-102.4zM768 153.6h-102.4v102.4h102.4v-102.4z" />
<glyph unicode="&#xe621;" glyph-name="dismiss1" data-tags="dismiss1" d="M512 921.6c226.304 0 409.6-183.296 409.6-409.6s-183.296-409.6-409.6-409.6-409.6 183.296-409.6 409.6 183.296 409.6 409.6 409.6zM768 358.4l-153.6 153.6 153.6 153.6-102.4 102.4-153.6-153.6-153.6 153.6-102.4-102.4 153.6-153.6-153.6-153.6 102.4-102.4 153.6 153.6 153.6-153.6z" />
<glyph unicode="&#xe622;" glyph-name="dismiss3" data-tags="dismiss3" d="M983.072 807.232l-294.304-296.096 294.304-294.336c12.32-12.288 12.32-32.224 0-44.544l-133.632-133.6c-12.256-12.32-32.192-12.32-44.512 0l-293.824 293.824-292.064-293.824c-12.288-12.32-32.224-12.32-44.544 0l-133.6 133.6c-12.288 12.32-12.288 32.256 0 44.544l292.064 293.824-292.032 292.032c-12.288 12.288-12.288 32.224 0 44.544l133.6 133.6c12.288 12.32 32.224 12.32 44.544 0l291.52-291.52 294.368 296.096c12.32 12.32 32.256 12.32 44.512 0l133.632-133.6c12.256-12.32 12.256-32.256-0.032-44.544z" />
<glyph unicode="&#xe623;" glyph-name="image1" data-tags="image1" d="M959.884 896c0.040-0.034 0.082-0.076 0.116-0.116v-767.77c-0.034-0.040-0.076-0.082-0.116-0.116h-895.77c-0.040 0.034-0.082 0.076-0.114 0.116v767.772c0.034 0.040 0.076 0.082 0.114 0.114h895.77zM960 960h-896c-35.2 0-64-28.8-64-64v-768c0-35.2 28.8-64 64-64h896c35.2 0 64 28.8 64 64v768c0 35.2-28.8 64-64 64v0zM832 736c0-53.020-42.98-96-96-96s-96 42.98-96 96 42.98 96 96 96 96-42.98 96-96zM896 192h-768v128l224 384 256-320h64l224 192z" />
<glyph unicode="&#xe624;" glyph-name="image2" data-tags="image2" d="M640 640l-192-320-127.040 92.672-0.96 3.328-7.552 2.912 5.888-4.32-190.336-158.592v-64h768v64l-96 288-160 96zM288 608c52.992 0 96 42.976 96 96s-43.008 96-96 96-96-42.976-96-96 43.008-96 96-96zM992 960h-960c-17.664 0-32-14.336-32-32v-832c0-17.696 14.336-32 32-32h960c17.696 0 32 14.304 32 32v832c0 17.664-14.304 32-32 32zM960 160c0-17.696-14.304-32-32-32h-832c-17.664 0-32 14.304-32 32v704c0 17.664 14.336 32 32 32h832c17.696 0 32-14.336 32-32v-704z" />
<glyph unicode="&#xe625;" glyph-name="horizontal1" data-tags="horizontal1" d="M1024 512c0 282.752-229.248 512-512 512s-512-229.248-512-512 229.248-512 512-512 512 229.248 512 512zM320 448v-64l-128 128 128 128v-64h384v64l128-128-128-128v64h-384z" />
<glyph unicode="&#xe626;" glyph-name="horizontal2" data-tags="horizontal2" d="M320 512l64-64h-192v-128l-192 192 192 192v-128h192zM702.016 512l-62.016 64h192v128l192-192-192-192v128h-192z" />
<glyph unicode="&#xe627;" glyph-name="horizontal3" data-tags="horizontal3" d="M384 448h-192v-128l-192 192 192 192v-128h192zM640 576h192v128l192-192-192-192v128h-192z" />
<glyph unicode="&#xe628;" glyph-name="vertical1" data-tags="vertical1" d="M512 1024c-282.752 0-512-229.248-512-512s229.248-512 512-512 512 229.248 512 512-229.248 512-512 512zM576 320h64l-128-128-128 128h64v384h-64l128 128 128-128h-64v-384z" />
<glyph unicode="&#xe629;" glyph-name="vertical2" data-tags="vertical2" horiz-adv-x="384" d="M192 320l64 64v-192h128l-192-192-192 192h128v192zM192 702.016l-64-62.016v192h-128l192 192 192-192h-128v-192z" />
<glyph unicode="&#xe62a;" glyph-name="vertical3" data-tags="vertical3" horiz-adv-x="384" d="M256 384v-192h128l-192-192-192 192h128v192zM128 640v192h-128l192 192 192-192h-128v-192z" />
<glyph unicode="&#xe62b;" glyph-name="language3" data-tags="language3" d="M512 1024c-282.77 0-512-229.23-512-512s229.23-512 512-512 512 229.23 512 512-229.23 512-512 512zM512 63.998c-62.958 0-122.872 13.012-177.23 36.452l233.148 262.29c5.206 5.858 8.082 13.422 8.082 21.26v96c0 17.674-14.326 32-32 32-112.99 0-232.204 117.462-233.374 118.626-6 6.002-14.14 9.374-22.626 9.374h-128c-17.672 0-32-14.328-32-32v-192c0-12.122 6.848-23.202 17.69-28.622l110.31-55.156v-187.886c-116.052 80.956-192 215.432-192 367.664 0 68.714 15.49 133.806 43.138 192h116.862c8.488 0 16.626 3.372 22.628 9.372l128 128c6 6.002 9.372 14.14 9.372 22.628v77.412c40.562 12.074 83.518 18.588 128 18.588 70.406 0 137.004-16.26 196.282-45.2-4.144-3.502-8.176-7.164-12.046-11.036-36.266-36.264-56.236-84.478-56.236-135.764s19.97-99.5 56.236-135.764c36.434-36.432 85.218-56.264 135.634-56.26 3.166 0 6.342 0.080 9.518 0.236 13.814-51.802 38.752-186.656-8.404-372.334-0.444-1.744-0.696-3.488-0.842-5.224-81.324-83.080-194.7-134.656-320.142-134.656z" />
<glyph unicode="&#xe62c;" glyph-name="currency3" data-tags="currency3" d="M480 960c-265.096 0-480-214.904-480-480s214.904-480 480-480c265.098 0 480 214.902 480 480s-214.902 480-480 480zM480 96c-212.078 0-384 171.922-384 384s171.922 384 384 384c212.076 0 384-171.922 384-384s-171.924-384-384-384zM608 448c17.674 0 32 14.326 32 32s-14.326 32-32 32h-68.208l94.832 142.25c9.804 14.704 5.83 34.572-8.876 44.376-14.704 9.802-34.572 5.83-44.376-8.876l-101.372-152.062-101.374 152.062c-9.804 14.706-29.672 18.68-44.376 8.876-14.706-9.804-18.678-29.672-8.876-44.376l94.834-142.25h-68.208c-17.672 0-32-14.326-32-32s14.328-32 32-32h96v-64h-96c-17.672 0-32-14.326-32-32s14.328-32 32-32h96v-96c0-17.674 14.328-32 32-32s32 14.326 32 32v96h96c17.674 0 32 14.326 32 32s-14.326 32-32 32h-96v64h96z" />
<glyph unicode="&#xe62d;" glyph-name="currency4" data-tags="currency4" d="M480 960c-265.096 0-480-214.904-480-480s214.904-480 480-480c265.098 0 480 214.902 480 480s-214.902 480-480 480zM480 96c-212.078 0-384 171.922-384 384s171.922 384 384 384c212.074 0 384-171.922 384-384s-171.926-384-384-384zM608 320h-224v128h96c17.672 0 32 14.326 32 32s-14.328 32-32 32h-96v32c0 52.934 43.066 96 96 96 34.17 0 66.042-18.404 83.18-48.030 8.85-15.298 28.426-20.526 43.722-11.676 15.296 8.848 20.526 28.424 11.676 43.722-28.538 49.336-81.638 79.984-138.578 79.984-88.224 0-160-71.776-160-160v-32h-32c-17.672 0-32-14.326-32-32s14.328-32 32-32h32v-192h288c17.674 0 32 14.326 32 32s-14.326 32-32 32z" />
<glyph unicode="&#xe62e;" glyph-name="currency5" data-tags="currency5" d="M480 960c-265.096 0-480-214.904-480-480s214.904-480 480-480c265.098 0 480 214.902 480 480s-214.902 480-480 480zM480 96c-212.078 0-384 171.922-384 384s171.922 384 384 384c212.076 0 384-171.922 384-384s-171.924-384-384-384zM670.824 379.66c-15.27 8.884-34.862 3.708-43.75-11.57-17.256-29.662-49.088-48.090-83.074-48.090h-128c-41.716 0-77.286 26.754-90.496 64h154.496c17.672 0 32 14.326 32 32s-14.328 32-32 32h-160v64h160c17.672 0 32 14.328 32 32s-14.328 32-32 32h-154.496c13.21 37.246 48.78 64 90.496 64h128c33.986 0 65.818-18.426 83.074-48.090 8.888-15.276 28.478-20.456 43.752-11.568 15.276 8.888 20.456 28.476 11.568 43.752-28.672 49.288-81.702 79.906-138.394 79.906h-128c-77.268 0-141.914-55.056-156.78-128h-35.22c-17.672 0-32-14.328-32-32s14.328-32 32-32h32v-64h-32c-17.672 0-32-14.326-32-32s14.328-32 32-32h35.22c14.866-72.944 79.512-128 156.78-128h128c56.692 0 109.72 30.62 138.394 79.91 8.888 15.276 3.708 34.864-11.57 43.75z" />
<glyph unicode="&#xe62f;" glyph-name="currency6" data-tags="currency6" d="M480 960c-265.096 0-480-214.904-480-480 0-265.098 214.904-480 480-480 265.098 0 480 214.902 480 480 0 265.096-214.902 480-480 480zM480 96c-212.078 0-384 171.922-384 384s171.922 384 384 384c212.078 0 384-171.922 384-384s-171.922-384-384-384zM512 512v128h128v64h-128v64h-64v-64h-128v-256h128v-128h-128v-64h128v-64h64v64h128.002l-0.002 256h-128zM448 512h-64v128h64v-128zM576.002 320h-64.002v128h64.002v-128z" />
<glyph unicode="&#xe630;" glyph-name="link2" data-tags="link2" d="M440.236 388.234c-13.31 0-26.616 5.076-36.77 15.23-95.134 95.136-95.134 249.934 0 345.070l192 192c46.088 46.086 107.36 71.466 172.534 71.466s126.448-25.38 172.536-71.464c95.132-95.136 95.132-249.934 0-345.070l-87.766-87.766c-20.308-20.308-53.23-20.308-73.54 0-20.306 20.306-20.306 53.232 0 73.54l87.766 87.766c54.584 54.586 54.584 143.404 0 197.99-26.442 26.442-61.6 41.004-98.996 41.004s-72.552-14.562-98.996-41.006l-192-191.998c-54.586-54.586-54.586-143.406 0-197.992 20.308-20.306 20.306-53.232 0-73.54-10.15-10.152-23.462-15.23-36.768-15.23zM256 12c-65.176 0-126.45 25.38-172.534 71.464-95.134 95.136-95.134 249.934 0 345.070l87.764 87.764c20.308 20.306 53.234 20.306 73.54 0 20.308-20.306 20.308-53.232 0-73.54l-87.764-87.764c-54.586-54.586-54.586-143.406 0-197.992 26.44-26.44 61.598-41.002 98.994-41.002s72.552 14.562 98.998 41.006l192 191.998c54.584 54.586 54.584 143.406 0 197.992-20.308 20.308-20.306 53.232 0 73.54 20.306 20.306 53.232 20.306 73.54-0.002 95.132-95.134 95.132-249.932 0.002-345.068l-192.002-192c-46.090-46.088-107.364-71.466-172.538-71.466z" />
<glyph unicode="&#xe631;" glyph-name="table2" data-tags="table2" d="M0 960v-896h1024v896h-1024zM384 384v192h256v-192h-256zM640 320v-192h-256v192h256zM640 832v-192h-256v192h256zM320 832v-192h-256v192h256zM64 576h256v-192h-256v192zM704 576h256v-192h-256v192zM704 640v192h256v-192h-256zM64 320h256v-192h-256v192zM704 128v192h256v-192h-256z" />
<glyph unicode="&#xe632;" glyph-name="table3" data-tags="table3" d="M0 832v-704h1024v704h-1024zM384 384v128h256v-128h-256zM640 320v-128h-256v128h256zM640 704v-128h-256v128h256zM320 704v-128h-256v128h256zM64 512h256v-128h-256v128zM704 512h256v-128h-256v128zM704 576v128h256v-128h-256zM64 320h256v-128h-256v128zM704 192v128h256v-128h-256z" />
<glyph unicode="&#xe633;" glyph-name="table4" data-tags="table4" d="M960 0h-896c-35.376 0-64 28.624-64 64v896c0 35.376 28.624 64 64 64h896c35.376 0 64-28.624 64-64v-896c0-35.376-28.624-64-64-64zM896 896h-768v-768h768v768zM448 576h-192v192h192v-192zM448 256h-192v192h192v-192zM768 576h-192v192h192v-192zM768 256h-192v192h192v-192z" />
<glyph unicode="&#xe635;" glyph-name="down5" data-tags="down5" d="M512 32l480 480h-288v512h-384v-512h-288z" />
<glyph unicode="&#xe636;" glyph-name="up5" data-tags="up5" d="M512 992l-480-480h288v-512h384v512h288z" />
<glyph unicode="&#xe637;" glyph-name="left5" data-tags="left5" d="M32 512l480-480v288h512v384h-512v288z" />
<glyph unicode="&#xe638;" glyph-name="right5" data-tags="right5" d="M992 512l-480 480v-288h-512v-384h512v-288z" />
<glyph unicode="&#xe639;" glyph-name="hash2" data-tags="hash2" d="M566.286 438.857l36.571 146.286h-145.143l-36.571-146.286h145.143zM1005.143 726.857l-32-128q-4-13.714-17.714-13.714h-186.857l-36.571-146.286h177.714q8.571 0 14.286-6.857 5.714-8 3.429-16l-32-128q-2.857-13.714-17.714-13.714h-186.857l-46.286-187.429q-4-13.714-17.714-13.714h-128q-9.143 0-14.857 6.857-5.143 6.857-3.429 16l44.571 178.286h-145.143l-46.286-187.429q-4-13.714-17.714-13.714h-128.571q-8.571 0-14.286 6.857-5.143 6.857-3.429 16l44.571 178.286h-177.714q-8.571 0-14.286 6.857-5.143 6.857-3.429 16l32 128q4 13.714 17.714 13.714h186.857l36.571 146.286h-177.714q-8.571 0-14.286 6.857-5.714 8-3.429 16l32 128q2.857 13.714 17.714 13.714h186.857l46.286 187.429q4 13.714 18.286 13.714h128q8.571 0 14.286-6.857 5.143-6.857 3.429-16l-44.571-178.286h145.143l46.286 187.429q4 13.714 18.286 13.714h128q8.571 0 14.286-6.857 5.143-6.857 3.429-16l-44.571-178.286h177.714q8.571 0 14.286-6.857 5.143-6.857 3.429-16z" />
<glyph unicode="&#xe63a;" glyph-name="minus1" data-tags="minus1" horiz-adv-x="878" d="M694.857 475.429v73.143q0 14.857-10.857 25.714t-25.714 10.857h-438.857q-14.857 0-25.714-10.857t-10.857-25.714v-73.143q0-14.857 10.857-25.714t25.714-10.857h438.857q14.857 0 25.714 10.857t10.857 25.714zM877.714 512q0-119.429-58.857-220.286t-159.714-159.714-220.286-58.857-220.286 58.857-159.714 159.714-58.857 220.286 58.857 220.286 159.714 159.714 220.286 58.857 220.286-58.857 159.714-159.714 58.857-220.286z" />
<glyph unicode="&#xe63b;" glyph-name="minus3" data-tags="minus3" d="M204.8 563.2h614.4v-102.4h-614.4v102.4z" />
<glyph unicode="&#xe63c;" glyph-name="plus1" data-tags="plus1" d="M808.96 808.96c163.84-164.352 163.84-429.568 0-593.92-164.352-163.84-429.568-163.84-593.92 0-163.84 164.352-163.84 429.568 0 593.92 164.352 163.84 429.568 163.84 593.92 0zM588.8 230.4v204.8h204.8v153.6h-204.8v204.8h-153.6v-204.8h-204.8v-153.6h204.8v-204.8h153.6z" />
<glyph unicode="&#xe63d;" glyph-name="plus2" data-tags="plus2" d="M870.4 665.6v-153.6h-256v-256h-153.6v256h-256v153.6h256v256h153.6v-256h256z" />
<glyph unicode="&#xe63e;" glyph-name="plus3" data-tags="plus3" d="M870.4 563.2v-102.4h-307.2v-307.2h-102.4v307.2h-307.2v102.4h307.2v307.2h102.4v-307.2h307.2z" />
<glyph unicode="&#xe63f;" glyph-name="trash1" data-tags="trash1" d="M614.4 819.2h153.6c28.16 0 51.2-23.040 51.2-51.2v-51.2h-665.6v51.2c0 28.16 23.040 51.2 51.2 51.2h153.6c11.776 58.368 66.048 102.4 128 102.4s116.224-44.032 128-102.4zM409.6 819.2h153.6c-10.752 29.696-43.52 51.2-76.8 51.2s-66.048-21.504-76.8-51.2zM204.8 665.6h563.2v-512c0-28.16-23.040-51.2-51.2-51.2h-460.8c-28.16 0-51.2 23.040-51.2 51.2v512zM358.4 204.8v358.4h-51.2v-358.4h51.2zM512 204.8v358.4h-51.2v-358.4h51.2zM665.6 204.8v358.4h-51.2v-358.4h51.2z" />
<glyph unicode="&#xe640;" glyph-name="trash2" data-tags="trash2" horiz-adv-x="805" d="M292.571 603.429v-329.143q0-8-5.143-13.143t-13.143-5.143h-36.571q-8 0-13.143 5.143t-5.143 13.143v329.143q0 8 5.143 13.143t13.143 5.143h36.571q8 0 13.143-5.143t5.143-13.143zM438.857 603.429v-329.143q0-8-5.143-13.143t-13.143-5.143h-36.571q-8 0-13.143 5.143t-5.143 13.143v329.143q0 8 5.143 13.143t13.143 5.143h36.571q8 0 13.143-5.143t5.143-13.143zM585.143 603.429v-329.143q0-8-5.143-13.143t-13.143-5.143h-36.571q-8 0-13.143 5.143t-5.143 13.143v329.143q0 8 5.143 13.143t13.143 5.143h36.571q8 0 13.143-5.143t5.143-13.143zM658.286 189.714v541.714h-512v-541.714q0-12.571 4-23.143t8.286-15.429 6-4.857h475.429q1.714 0 6 4.857t8.286 15.429 4 23.143zM274.286 804.571h256l-27.429 66.857q-4 5.143-9.714 6.286h-181.143q-5.714-1.143-9.714-6.286zM804.571 786.286v-36.571q0-8-5.143-13.143t-13.143-5.143h-54.857v-541.714q0-47.429-26.857-82t-64.571-34.571h-475.429q-37.714 0-64.571 33.429t-26.857 80.857v544h-54.857q-8 0-13.143 5.143t-5.143 13.143v36.571q0 8 5.143 13.143t13.143 5.143h176.571l40 95.429q8.571 21.143 30.857 36t45.143 14.857h182.857q22.857 0 45.143-14.857t30.857-36l40-95.429h176.571q8 0 13.143-5.143t5.143-13.143z" />
<glyph unicode="&#xe641;" glyph-name="settings1" data-tags="settings1" d="M921.6 409.6h-111.616c-8.704-35.84-22.528-69.12-41.472-98.816l78.848-78.848-107.52-107.52-78.848 78.848c-29.696-18.432-62.976-32.256-97.792-40.448v-111.616h-153.6v111.616c-34.816 8.192-68.096 22.016-97.792 40.448l-78.848-78.848-108.544 108.544 78.848 78.848c-18.432 29.696-32.256 62.976-40.448 97.792h-111.616v152.064h111.104c8.192 35.84 22.528 69.12 40.96 99.328l-78.848 78.848 107.52 107.52 78.848-78.848c29.696 18.944 63.488 32.768 98.816 41.472v111.616h153.6v-111.616c34.816-8.192 68.096-22.016 97.792-40.448l78.848 78.848 108.544-108.544-78.848-78.848c18.432-30.208 32.768-63.488 40.96-99.328h111.104v-152.064zM486.4 332.8c84.992 0 153.6 68.608 153.6 153.6s-68.608 153.6-153.6 153.6-153.6-68.608-153.6-153.6 68.608-153.6 153.6-153.6z" />
<glyph unicode="&#xe642;" glyph-name="settings3" data-tags="settings3" horiz-adv-x="1097" d="M512 512q0 60.571-42.857 103.429t-103.429 42.857-103.429-42.857-42.857-103.429 42.857-103.429 103.429-42.857 103.429 42.857 42.857 103.429zM950.857 219.429q0 29.714-21.714 51.429t-51.429 21.714-51.429-21.714-21.714-51.429q0-30.286 21.429-51.714t51.714-21.429 51.714 21.429 21.429 51.714zM950.857 804.571q0 29.714-21.714 51.429t-51.429 21.714-51.429-21.714-21.714-51.429q0-30.286 21.429-51.714t51.714-21.429 51.714 21.429 21.429 51.714zM731.429 564v-105.714q0-5.714-4-11.143t-9.143-6l-88.571-13.714q-6.286-20-18.286-43.429 19.429-27.429 51.429-65.714 4-5.714 4-11.429 0-6.857-4-10.857-13.143-17.143-47.143-51.143t-44.857-34q-6.286 0-12 4l-65.714 51.429q-21.143-10.857-44-17.714-6.286-61.714-13.143-88.571-4-13.714-17.143-13.714h-106.286q-6.286 0-11.429 4.286t-5.714 10l-13.143 87.429q-19.429 5.714-42.857 17.714l-67.429-50.857q-4-4-11.429-4-6.286 0-12 4.571-82.286 76-82.286 91.429 0 5.143 4 10.857 5.714 8 23.429 30.286t26.857 34.857q-13.143 25.143-20 46.857l-86.857 13.714q-5.714 0.571-9.714 5.429t-4 11.143v105.714q0 5.714 4 11.143t9.143 6l88.571 13.714q6.286 20 18.286 43.429-19.429 27.429-51.429 65.714-4 6.286-4 11.429 0 6.857 4 11.429 12.571 17.143 46.857 50.857t45.143 33.714q6.286 0 12-4l65.714-51.429q19.429 10.286 44 18.286 6.286 61.714 13.143 88 4 13.714 17.143 13.714h106.286q6.286 0 11.429-4.286t5.714-10l13.143-87.429q19.429-5.714 42.857-17.714l67.429 50.857q4.571 4 11.429 4 6.286 0 12-4.571 82.286-76 82.286-91.429 0-5.143-4-10.857-6.857-9.143-24-30.857t-25.714-34.286q13.143-27.429 19.429-46.857l86.857-13.143q5.714-1.143 9.714-6t4-11.143zM1097.143 259.429v-80q0-9.143-85.143-17.714-6.857-15.429-17.143-29.714 29.143-64.571 29.143-78.857 0-2.286-2.286-4-69.714-40.571-70.857-40.571-4.571 0-26.286 26.857t-29.714 38.857q-11.429-1.143-17.143-1.143t-17.143 1.143q-8-12-29.714-38.857t-26.286-26.857q-1.143 0-70.857 40.571-2.286 1.714-2.286 4 0 14.286 29.143 78.857-10.286 14.286-17.143 29.714-85.143 8.571-85.143 17.714v80q0 9.143 85.143 17.714 7.429 16.571 17.143 29.714-29.143 64.571-29.143 78.857 0 2.286 2.286 4 2.286 1.143 20 11.429t33.714 19.429 17.143 9.143q4.571 0 26.286-26.571t29.714-38.571q11.429 1.143 17.143 1.143t17.143-1.143q29.143 40.571 52.571 64l3.429 1.143q2.286 0 70.857-40 2.286-1.714 2.286-4 0-14.286-29.143-78.857 9.714-13.143 17.143-29.714 85.143-8.571 85.143-17.714zM1097.143 844.571v-80q0-9.143-85.143-17.714-6.857-15.429-17.143-29.714 29.143-64.571 29.143-78.857 0-2.286-2.286-4-69.714-40.571-70.857-40.571-4.571 0-26.286 26.857t-29.714 38.857q-11.429-1.143-17.143-1.143t-17.143 1.143q-8-12-29.714-38.857t-26.286-26.857q-1.143 0-70.857 40.571-2.286 1.714-2.286 4 0 14.286 29.143 78.857-10.286 14.286-17.143 29.714-85.143 8.571-85.143 17.714v80q0 9.143 85.143 17.714 7.429 16.571 17.143 29.714-29.143 64.571-29.143 78.857 0 2.286 2.286 4 2.286 1.143 20 11.429t33.714 19.429 17.143 9.143q4.571 0 26.286-26.571t29.714-38.571q11.429 1.143 17.143 1.143t17.143-1.143q29.143 40.571 52.571 64l3.429 1.143q2.286 0 70.857-40 2.286-1.714 2.286-4 0-14.286-29.143-78.857 9.714-13.143 17.143-29.714 85.143-8.571 85.143-17.714z" />
<glyph unicode="&#xe643;" glyph-name="wrench2" data-tags="wrench2" d="M854.016 523.776c-68.608-68.608-168.96-85.504-253.44-50.688l-276.992-333.824c-50.688-50.688-132.608-50.688-183.296 0s-50.688 132.608 0 182.784l333.824 277.504c-34.816 84.48-17.92 184.832 50.688 253.44 65.536 65.536 159.744 82.944 241.664 54.272l-147.968-147.968 144.384-144.384 146.432 146.944c27.136-80.896 9.216-173.568-55.296-238.080zM195.072 194.048c20.48-19.968 53.248-19.968 73.216 0 20.48 20.48 20.48 53.248 0 73.216-19.968 20.48-52.736 20.48-73.216 0-19.968-19.968-19.968-52.736 0-73.216z" />
<glyph unicode="&#xe644;" glyph-name="edit1" data-tags="edit1" d="M711.168 850.432l138.752-139.264c23.552-23.552 21.504-63.488 1.536-83.968l-410.112-410.624-284.672-59.392 59.392 285.696s389.12 390.656 409.088 411.136c19.968 19.968 62.464 19.968 86.016-3.584zM571.392 707.584l-286.208-287.232 56.832-56.832 283.648 289.28zM419.328 286.208l285.696 286.72-54.784 55.296-286.208-286.72z" />
<glyph unicode="&#xe645;" glyph-name="edit2" data-tags="edit2" horiz-adv-x="866" d="M207.429 146.286l52 52-134.286 134.286-52-52v-61.143h73.143v-73.143h61.143zM506.286 676.571q0 12.571-12.571 12.571-5.714 0-9.714-4l-309.714-309.714q-4-4-4-9.714 0-12.571 12.571-12.571 5.714 0 9.714 4l309.714 309.714q4 4 4 9.714zM475.429 786.286l237.714-237.714-475.429-475.429h-237.714v237.714zM865.714 731.429q0-30.286-21.143-51.429l-94.857-94.857-237.714 237.714 94.857 94.286q20.571 21.714 51.429 21.714 30.286 0 52-21.714l134.286-133.714q21.143-22.286 21.143-52z" />
<glyph unicode="&#xe646;" glyph-name="code1" data-tags="code1" d="M460.8 716.8l-204.8-204.8 204.8-204.8-51.2-102.4-307.2 307.2 307.2 307.2zM563.2 307.2l204.8 204.8-204.8 204.8 51.2 102.4 307.2-307.2-307.2-307.2z" />
<glyph unicode="&#xe647;" glyph-name="code2" data-tags="code2" horiz-adv-x="1097" d="M352.571 224.571l-28.571-28.571q-5.714-5.714-13.143-5.714t-13.143 5.714l-266.286 266.286q-5.714 5.714-5.714 13.143t5.714 13.143l266.286 266.286q5.714 5.714 13.143 5.714t13.143-5.714l28.571-28.571q5.714-5.714 5.714-13.143t-5.714-13.143l-224.571-224.571 224.571-224.571q5.714-5.714 5.714-13.143t-5.714-13.143zM690.286 834.286l-213.143-737.714q-2.286-7.429-8.857-11.143t-13.429-1.429l-35.429 9.714q-7.429 2.286-11.143 8.857t-1.429 14l213.143 737.714q2.286 7.429 8.857 11.143t13.429 1.429l35.429-9.714q7.429-2.286 11.143-8.857t1.429-14zM1065.714 462.286l-266.286-266.286q-5.714-5.714-13.143-5.714t-13.143 5.714l-28.571 28.571q-5.714 5.714-5.714 13.143t5.714 13.143l224.571 224.571-224.571 224.571q-5.714 5.714-5.714 13.143t5.714 13.143l28.571 28.571q5.714 5.714 13.143 5.714t13.143-5.714l266.286-266.286q5.714-5.714 5.714-13.143t-5.714-13.143z" />
<glyph unicode="&#xe648;" glyph-name="search1" data-tags="search1" d="M621.568 809.984c95.744-95.744 108.032-243.2 36.864-352.768 6.144-5.12 11.264-10.752 18.432-15.872 10.24-8.192 24.064-18.432 41.472-30.208 17.408-12.288 28.672-19.968 33.792-24.064 21.504-15.872 37.376-29.184 48.128-39.936 16.384-16.384 30.72-33.28 43.008-51.2 12.8-17.92 22.528-35.328 30.208-53.248 7.168-17.92 10.752-34.816 9.216-51.2-1.024-16.384-7.168-30.208-18.432-41.472s-25.088-17.408-41.472-18.432c-15.872-1.024-33.28 2.048-50.688 9.728-17.92 7.168-35.84 17.408-53.248 30.208-17.92 12.288-34.816 26.624-51.2 43.008-10.752 10.752-24.064 26.624-39.424 47.616-5.12 6.656-12.8 17.92-24.064 33.792-11.264 16.384-20.48 29.184-28.672 39.936-8.192 10.24-14.848 17.92-22.528 25.6-105.984-55.808-240.128-38.912-329.728 50.176-109.568 110.080-109.568 288.768 0 398.336 110.080 110.080 288.256 110.080 398.336 0zM549.376 484.352c69.632 70.144 69.632 183.296 0 253.44-70.144 70.144-183.808 70.144-253.44 0-70.144-70.144-70.144-183.296 0-253.44 69.632-70.144 183.296-70.144 253.44 0z" />
<glyph unicode="&#xe649;" glyph-name="unsorted1" data-tags="unsorted1" horiz-adv-x="585" d="M585.143 402.286q0-14.857-10.857-25.714l-256-256q-10.857-10.857-25.714-10.857t-25.714 10.857l-256 256q-10.857 10.857-10.857 25.714t10.857 25.714 25.714 10.857h512q14.857 0 25.714-10.857t10.857-25.714zM585.143 621.714q0-14.857-10.857-25.714t-25.714-10.857h-512q-14.857 0-25.714 10.857t-10.857 25.714 10.857 25.714l256 256q10.857 10.857 25.714 10.857t25.714-10.857l256-256q10.857-10.857 10.857-25.714z" />
<glyph unicode="&#xe64a;" glyph-name="sort-number-desc2" data-tags="sort-number-desc2" horiz-adv-x="864" d="M769.143 858.857q0 36-25.143 66.286t-58.857 30.286q-29.714 0-47.429-21.143t-17.714-53.714 20.857-54.286 59.714-21.714q28.571 0 48.571 15.429t20 38.857zM420.571 201.143q0-6.857-5.714-13.714l-182.286-182.286q-5.714-5.143-13.143-5.143-6.857 0-13.143 5.143l-182.857 182.857q-8.571 9.143-4 20 4.571 11.429 17.143 11.429h109.714v786.286q0 8 5.143 13.143t13.143 5.143h109.714q8 0 13.143-5.143t5.143-13.143v-786.286h109.714q8 0 13.143-5.143t5.143-13.143zM832 65.143v-65.143h-268v65.143h95.429v246.857q0 4 0.286 10.857t0.286 9.714v9.143h-1.143l-4-6.857q-4.571-7.429-14.857-17.714l-35.429-33.143-46.857 49.143 109.714 105.714h70.286v-373.714h94.286zM849.143 825.714q0-35.429-7.429-69.429t-23.429-65.143-38.857-54.571-56.286-37.429-72.857-14q-35.429 0-61.714 9.143-13.714 4.571-24 8.571l22.286 64.571q8.571-4 17.714-6.286 21.143-7.429 42.857-7.429 48 0 76.857 33.429t38 83.143h-1.143q-12-13.143-35.143-21.143t-48.286-8q-60.571 0-98.857 40.857t-38.286 98.571q0 60 41.143 101.714t103.429 41.714q70.286 0 117.143-54t46.857-144.286z" />
<glyph unicode="&#xe64b;" glyph-name="sort-number-asc2" data-tags="sort-number-asc2" horiz-adv-x="864" d="M769.143 273.714q0 36-25.143 66.286t-58.857 30.286q-29.714 0-47.429-21.143t-17.714-53.714 20.857-54.286 59.714-21.714q28.571 0 48.571 15.429t20 38.857zM420.571 201.143q0-6.857-5.714-13.714l-182.286-182.286q-5.714-5.143-13.143-5.143-6.857 0-13.143 5.143l-182.857 182.857q-8.571 9.143-4 20 4.571 11.429 17.143 11.429h109.714v786.286q0 8 5.143 13.143t13.143 5.143h109.714q8 0 13.143-5.143t5.143-13.143v-786.286h109.714q8 0 13.143-5.143t5.143-13.143zM849.143 240.571q0-35.429-7.429-69.429t-23.429-65.143-38.857-54.571-56.286-37.429-72.857-14q-35.429 0-61.714 9.143-13.714 4.571-24 8.571l22.286 64.571q8.571-4 17.714-6.286 21.143-7.429 42.857-7.429 48 0 76.857 33.429t38 83.143h-1.143q-12-13.143-35.143-21.143t-48.286-8q-60.571 0-98.857 40.857t-38.286 98.571q0 60 41.143 101.714t103.429 41.714q70.286 0 117.143-54t46.857-144.286zM832 650.286v-65.143h-268v65.143h95.429v246.857q0 4 0.286 10.857t0.286 9.714v9.143h-1.143l-4-6.857q-4.571-7.429-14.857-17.714l-35.429-33.143-46.857 49.143 109.714 105.714h70.286v-373.714h94.286z" />
<glyph unicode="&#xe64c;" glyph-name="sort-alpha-desc2" data-tags="sort-alpha-desc2" horiz-adv-x="964" d="M680.571 205.714h101.143l-41.143 124.571-6.857 26.857q-1.143 9.143-1.143 11.429h-2.286l-1.714-11.429q0-0.571-2-10.286t-4.286-16.571zM420.571 201.143q0-6.857-5.714-13.714l-182.286-182.286q-5.714-5.143-13.143-5.143-6.857 0-13.143 5.143l-182.857 182.857q-8.571 9.143-4 20 4.571 11.429 17.143 11.429h109.714v786.286q0 8 5.143 13.143t13.143 5.143h109.714q8 0 13.143-5.143t5.143-13.143v-786.286h109.714q8 0 13.143-5.143t5.143-13.143zM949.143 60.571v-60.571h-164.571v60.571h42.857l-26.857 82.286h-138.857l-26.857-82.286h42.857v-60.571h-164v60.571h40l131.429 378.286h92.571l131.429-378.286h40zM898.286 718.286v-133.143h-333.714v51.429l210.857 302.286q6.857 10.286 12 15.429l6.286 5.143v1.714q-1.143 0-3.714-0.286t-4.286-0.286q-6.857-1.714-17.143-1.714h-132.571v-65.714h-68.571v130.857h324v-50.857l-210.857-302.857q-3.429-4.571-12-14.857l-6.286-5.714v-1.714l8 1.714q5.143 0.571 17.143 0.571h141.714v68h69.143z" />
<glyph unicode="&#xe64d;" glyph-name="sort-alpha-asc2" data-tags="sort-alpha-asc2" horiz-adv-x="964" d="M680.571 790.857h101.143l-41.143 124.571-6.857 26.857q-1.143 9.143-1.143 11.429h-2.286l-1.714-11.429q0-0.571-2-10.286t-4.286-16.571zM420.571 201.143q0-6.857-5.714-13.714l-182.286-182.286q-5.714-5.143-13.143-5.143-6.857 0-13.143 5.143l-182.857 182.857q-8.571 9.143-4 20 4.571 11.429 17.143 11.429h109.714v786.286q0 8 5.143 13.143t13.143 5.143h109.714q8 0 13.143-5.143t5.143-13.143v-786.286h109.714q8 0 13.143-5.143t5.143-13.143zM898.286 133.143v-133.143h-333.714v51.429l210.857 302.286q6.857 10.286 12 15.429l6.286 5.143v1.714q-1.143 0-3.714-0.286t-4.286-0.286q-6.857-1.714-17.143-1.714h-132.571v-65.714h-68.571v130.857h324v-50.857l-210.857-302.857q-3.429-4.571-12-14.857l-6.286-6.286v-1.143l8 1.143q5.143 1.143 17.143 1.143h141.714v68h69.143zM949.143 645.714v-60.571h-164.571v60.571h42.857l-26.857 82.286h-138.857l-26.857-82.286h42.857v-60.571h-164v60.571h40l131.429 378.286h92.571l131.429-378.286h40z" />
<glyph unicode="&#xe64e;" glyph-name="sort-desc2" data-tags="sort-desc2" horiz-adv-x="1039" d="M694.857 128v-109.714q0-8-5.143-13.143t-13.143-5.143h-146.286q-8 0-13.143 5.143t-5.143 13.143v109.714q0 8 5.143 13.143t13.143 5.143h146.286q8 0 13.143-5.143t5.143-13.143zM420.571 201.143q0-6.857-5.714-13.714l-182.286-182.286q-5.714-5.143-13.143-5.143-6.857 0-13.143 5.143l-182.857 182.857q-8.571 9.143-4 20 4.571 11.429 17.143 11.429h109.714v786.286q0 8 5.143 13.143t13.143 5.143h109.714q8 0 13.143-5.143t5.143-13.143v-786.286h109.714q8 0 13.143-5.143t5.143-13.143zM804.571 420.571v-109.714q0-8-5.143-13.143t-13.143-5.143h-256q-8 0-13.143 5.143t-5.143 13.143v109.714q0 8 5.143 13.143t13.143 5.143h256q8 0 13.143-5.143t5.143-13.143zM914.286 713.143v-109.714q0-8-5.143-13.143t-13.143-5.143h-365.714q-8 0-13.143 5.143t-5.143 13.143v109.714q0 8 5.143 13.143t13.143 5.143h365.714q8 0 13.143-5.143t5.143-13.143zM1024 1005.714v-109.714q0-8-5.143-13.143t-13.143-5.143h-475.429q-8 0-13.143 5.143t-5.143 13.143v109.714q0 8 5.143 13.143t13.143 5.143h475.429q8 0 13.143-5.143t5.143-13.143z" />
<glyph unicode="&#xe64f;" glyph-name="sort-asc2" data-tags="sort-asc2" horiz-adv-x="1039" d="M420.571 201.143q0-6.857-5.714-13.714l-182.286-182.286q-5.714-5.143-13.143-5.143-6.857 0-13.143 5.143l-182.857 182.857q-8.571 9.143-4 20 4.571 11.429 17.143 11.429h109.714v786.286q0 8 5.143 13.143t13.143 5.143h109.714q8 0 13.143-5.143t5.143-13.143v-786.286h109.714q8 0 13.143-5.143t5.143-13.143zM1024 128v-109.714q0-8-5.143-13.143t-13.143-5.143h-475.429q-8 0-13.143 5.143t-5.143 13.143v109.714q0 8 5.143 13.143t13.143 5.143h475.429q8 0 13.143-5.143t5.143-13.143zM914.286 420.571v-109.714q0-8-5.143-13.143t-13.143-5.143h-365.714q-8 0-13.143 5.143t-5.143 13.143v109.714q0 8 5.143 13.143t13.143 5.143h365.714q8 0 13.143-5.143t5.143-13.143zM804.571 713.143v-109.714q0-8-5.143-13.143t-13.143-5.143h-256q-8 0-13.143 5.143t-5.143 13.143v109.714q0 8 5.143 13.143t13.143 5.143h256q8 0 13.143-5.143t5.143-13.143zM694.857 1005.714v-109.714q0-8-5.143-13.143t-13.143-5.143h-146.286q-8 0-13.143 5.143t-5.143 13.143v109.714q0 8 5.143 13.143t13.143 5.143h146.286q8 0 13.143-5.143t5.143-13.143z" />
<glyph unicode="&#xe650;" glyph-name="text1" data-tags="text1" horiz-adv-x="878" d="M838.857 806.857q16-16 27.429-43.429t11.429-50.286v-658.286q0-22.857-16-38.857t-38.857-16h-768q-22.857 0-38.857 16t-16 38.857v914.286q0 22.857 16 38.857t38.857 16h512q22.857 0 50.286-11.429t43.429-27.429zM585.143 946.286v-214.857h214.857q-5.714 16.571-12.571 23.429l-178.857 178.857q-6.857 6.857-23.429 12.571zM804.571 73.143v585.143h-237.714q-22.857 0-38.857 16t-16 38.857v237.714h-438.857v-877.714h731.429zM219.429 566.857q0 8 5.143 13.143t13.143 5.143h402.286q8 0 13.143-5.143t5.143-13.143v-36.571q0-8-5.143-13.143t-13.143-5.143h-402.286q-8 0-13.143 5.143t-5.143 13.143v36.571zM640 438.857q8 0 13.143-5.143t5.143-13.143v-36.571q0-8-5.143-13.143t-13.143-5.143h-402.286q-8 0-13.143 5.143t-5.143 13.143v36.571q0 8 5.143 13.143t13.143 5.143h402.286zM640 292.571q8 0 13.143-5.143t5.143-13.143v-36.571q0-8-5.143-13.143t-13.143-5.143h-402.286q-8 0-13.143 5.143t-5.143 13.143v36.571q0 8 5.143 13.143t13.143 5.143h402.286z" />
<glyph unicode="&#xe651;" glyph-name="text2" data-tags="text2" horiz-adv-x="878" d="M838.857 752q8-8 16-20.571h-269.714v269.714q12.571-8 20.571-16zM566.857 658.286h310.857v-603.429q0-22.857-16-38.857t-38.857-16h-768q-22.857 0-38.857 16t-16 38.857v914.286q0 22.857 16 38.857t38.857 16h457.143v-310.857q0-22.857 16-38.857t38.857-16zM658.286 237.714v36.571q0 8-5.143 13.143t-13.143 5.143h-402.286q-8 0-13.143-5.143t-5.143-13.143v-36.571q0-8 5.143-13.143t13.143-5.143h402.286q8 0 13.143 5.143t5.143 13.143zM658.286 384v36.571q0 8-5.143 13.143t-13.143 5.143h-402.286q-8 0-13.143-5.143t-5.143-13.143v-36.571q0-8 5.143-13.143t13.143-5.143h402.286q8 0 13.143 5.143t5.143 13.143zM658.286 530.286v36.571q0 8-5.143 13.143t-13.143 5.143h-402.286q-8 0-13.143-5.143t-5.143-13.143v-36.571q0-8 5.143-13.143t13.143-5.143h402.286q8 0 13.143 5.143t5.143 13.143z" />
<glyph unicode="&#xe652;" glyph-name="percent" data-tags="percent" horiz-adv-x="878" d="M731.429 292.571q0 29.714-21.714 51.429t-51.429 21.714-51.429-21.714-21.714-51.429 21.714-51.429 51.429-21.714 51.429 21.714 21.714 51.429zM292.571 731.429q0 29.714-21.714 51.429t-51.429 21.714-51.429-21.714-21.714-51.429 21.714-51.429 51.429-21.714 51.429 21.714 21.714 51.429zM877.714 292.571q0-90.857-64.286-155.143t-155.143-64.286-155.143 64.286-64.286 155.143 64.286 155.143 155.143 64.286 155.143-64.286 64.286-155.143zM822.857 914.286q0-11.429-7.429-21.714l-603.429-804.571q-10.857-14.857-29.143-14.857h-91.429q-14.857 0-25.714 10.857t-10.857 25.714q0 11.429 7.429 21.714l603.429 804.571q10.857 14.857 29.143 14.857h91.429q14.857 0 25.714-10.857t10.857-25.714zM438.857 731.429q0-90.857-64.286-155.143t-155.143-64.286-155.143 64.286-64.286 155.143 64.286 155.143 155.143 64.286 155.143-64.286 64.286-155.143z" />
<glyph unicode="&#xe653;" glyph-name="signlanguage1" data-tags="signlanguage1" horiz-adv-x="950" d="M474.857 639.429q18.286 0 33.714-10.286l126.857-84.571q34.857-22.857 62.857-55.429l83.429-97.143q22.857-26.286 16.571-60.571l-41.143-236q-3.429-18.286-16.857-30.571t-31.714-14.571l-301.143-32-201.143-18.286h-5.143q-22.286 0-38.571 16t-16.286 38.857q0 21.143 15.429 36.571t37.143 18.286l148.571 18.286h-256q-23.429 0-39.714 17.143t-15.143 40.571q1.143 22.286 18.286 37.143t39.429 14.857l252.571 0.571-297.714 36.571q-23.429 2.857-37.714 21.143t-10.857 41.714q3.429 20 19.714 32.857t37.429 12.857h5.714l274.857-34.286-200.571 53.714q-21.714 5.714-35.429 23.714t-10.286 39.143q3.429 20.571 18.857 33.429t35.429 12.857q3.429 0 11.429-1.143l256-54.857 124-21.143q0.571 0 1.714-0.286t1.714-0.286q13.143 0 17.429 13.143t-7.143 20.571l-106.286 71.429q-20 13.143-24 36.286t10.286 42q15.429 21.714 43.429 21.714zM434.857 524l106.286-71.429-124.571 21.143-2.857 1.143-20.571 21.714-136 149.714q-0.571 0.571-1.429 2t-1.429 2q-13.714 17.714-10.571 40t21.429 36.571q17.714 13.143 38.857 10t36.571-19.143l81.143-84-2.286-2.286t-2.857-2.286q-18.286-25.714-13.143-56.571t31.429-48.571zM941.714 783.429l8.571-152q2.286-41.714-6.286-84l-27.429-125.143q-6.857-33.714-38.286-49.714l-60.571-30.857q1.143 35.429-22.286 62.286l-83.429 97.143q-30.286 34.857-66.857 58.857l-126.857 84.571q-19.429 13.143-43.429 13.143-29.143 0-50.286-21.143l-134.286 178.286q-14.286 18.857-10.286 42t23.429 36.286q18.857 12.571 40.857 8t35.714-22.857l152-201.143-149.714 260q-12 20-6 42.857t27.143 33.714q20 10.286 41.429 3.429t32.857-26.286l137.714-240-77.714 192.571q-8.571 20-2.571 42.286t25.429 32q21.143 10.857 43.429 3.429t32-29.143l110.286-237.143 57.714-112q4.571-8.571 13.143-10t15.429 4.286 6.286 14.857l-6.857 128q-1.143 23.429 14.857 40.571t39.429 17.714q22.286 0 38.286-16.286t17.143-38.571z" />
<glyph unicode="&#xe654;" glyph-name="signlanguage2" data-tags="signlanguage2" horiz-adv-x="1317" d="M589.714 475.429q-33.714 1.143-48 31.429-9.714 19.429-27.429 30.571t-38.857 11.143q-30.286 0-51.714-21.429t-21.429-51.714q0-32 20.571-50.857l5.714-4.571q19.429-17.714 46.857-17.714 21.143 0 38.857 11.143t27.429 30.571q14.286 30.286 48 31.429zM914.286 548.571q0 32-20.571 50.857l-5.714 4.571q-19.429 17.714-46.857 17.714-21.143 0-38.857-11.143t-27.429-30.571q-14.286-30.286-48-31.429 33.714-1.143 48-31.429 9.714-19.429 27.429-30.571t38.857-11.143q30.286 0 51.714 21.429t21.429 51.714zM670.857 674.857q-9.714-20-31.429-27.429t-41.714 2.286q-35.429 17.714-76.571 17.714-29.143 0-56.571-9.714 1.714 0 5.429 0.286t5.429 0.286q52.571 0 97.429-28.571t67.714-76q9.714-20.571 2-42t-28.286-31.143q-10.286-5.143-22.286-5.143 12 0 22.286-5.143 20.571-9.714 28.286-31.143t-2-42q-22.857-47.429-67.714-76t-97.429-28.571h-3.429q-9.143 1.143-25.143 2.286l-165.714 15.429-136.571-68.571q-8-4-16.571-4-22.857 0-32.571 20l-91.429 182.857q-6.286 13.143-2.286 27.143t16.571 21.429l119.429 68 84.571 152.571q9.714 88.571 52.286 166.571t111.714 135.143q17.714 14.286 40.286 12.286t36.857-19.714 12.286-40-19.714-37.143q-40-33.714-66.857-73.143 70.286 48 152.571 57.714 22.857 2.857 40.857-10.857t20.286-36.571q2.857-22.857-10.857-40.857t-36.571-20.286q-48-5.714-90.857-31.429 26.286 5.714 56.571 5.714 65.714 0 124.571-28.571 20.571-10.286 28-31.714t-2.857-42zM1221.143 766.286l91.429-182.857q6.286-13.143 2.286-27.143t-16.571-21.429l-119.429-68-84.571-152.571q-9.714-88.571-52.286-166.571t-111.714-135.143q-14.857-12.571-34.857-12.571-25.714 0-42.286 20-14.286 17.714-12.286 40t19.714 37.143q40 33.714 66.857 73.143-70.286-48-152.571-57.714-2.286-0.571-6.857-0.571-20.571 0-36.286 13.714t-18 34.286q-2.857 22.857 10.857 40.857t36.571 20.286q48 5.714 90.857 31.429-26.286-5.714-56.571-5.714-65.714 0-124.571 28.571-20.571 10.286-28 31.714t2.857 42q9.714 20 31.429 27.429t41.714-2.286q35.429-17.714 76.571-17.714 29.143 0 56.571 9.714-1.714 0-5.429-0.286t-5.429-0.286q-52.571 0-97.429 28.571t-67.714 76q-9.714 20.571-2 42t28.286 31.143q10.286 5.143 22.286 5.143-12 0-22.286 5.143-20.571 9.714-28.286 31.143t2 42q22.857 47.429 67.714 76t97.429 28.571h4q8-1.143 24-2.286l166.286-15.429 136.571 68.571q8 4 16.571 4 22.857 0 32.571-20z" />
<glyph unicode="&#xe655;" glyph-name="language1" data-tags="language1" horiz-adv-x="878" d="M373.714 408q-0.571-1.714-7.143 0.286t-18 6.571l-11.429 5.143q-25.143 11.429-49.714 28-4 2.857-23.429 18t-21.714 16.286q-38.286-58.857-76.571-103.429-46.286-54.286-60-62.857-2.286-1.143-11.143-2.286t-10.571 0q3.429 2.286 46.857 52.571 12 13.714 48.857 65.714t44.857 67.429q9.714 17.143 29.143 56.286t20.571 44.286q-4.571 0.571-62.857-18.857-4.571-1.143-15.714-4.286t-19.714-5.429-9.714-2.857q-1.143-1.143-1.143-6t-0.571-5.429q-2.857-5.714-17.714-8.571-13.143-4-26.857 0-10.286 2.286-16 12-2.286 3.429-2.857 13.143 3.429 1.143 14 2.857t16.857 3.429q33.143 9.143 60 18.286 57.143 20 58.286 20 5.714 1.143 24.571 11.143t25.143 12.286q5.143 1.714 12.286 4.571t8.286 3.143 3.429-0.286q1.143-6.857-0.571-18.857 0-1.143-7.143-15.429t-15.143-30.571-9.714-19.143q-14.286-28.571-44-74.857l36.571-16q6.857-3.429 42.571-18.286t38.571-16q2.286-0.571 6-14.571t2.571-17.429zM256.571 685.714q1.714-8.571-2.286-16-6.857-13.143-28.571-21.714-17.143-6.857-34.286-6.857-14.857 1.714-28 14.857-8 8.571-10.286 23.429l0.571 1.714q1.714-1.714 11.143-2.857t15.143 0 33.143 9.143q20.571 6.857 31.429 8 9.714 0 12-9.714zM655.429 612l36-129.714-79.429 24zM22.286 154.857l396.571 132.571v589.714l-396.571-133.143v-589.143zM731.429 336l58.286-17.714-103.429 375.429-57.143 17.714-123.429-306.286 58.286-17.714 25.714 62.857 120.571-37.143zM444 885.714l327.429-105.143v217.143zM621.714 129.714l90.286-7.429-30.857-91.429-22.857 37.714q-74.286-47.429-157.714-61.714-33.143-6.857-52-6.857h-48q-45.143 0-114 22.286t-104.857 48.571q-4.571 4-4.571 9.143 0 4.571 2.857 7.714t7.429 3.143q2.286 0 10.286-4.286t17.429-9.429 11.714-6.286q41.714-21.143 91.143-35.143t90-14q54.286 0 95.429 8.286t89.714 28.857q8.571 4 17.429 8.857t19.429 10.857 16.286 9.429zM877.714 746.286v-616.571l-442.286 140.571q-8-3.429-214.286-72.857t-210.286-69.429q-7.429 0-10.286 7.429 0 0.571-0.571 1.714v616q1.714 5.143 2.286 5.714 2.857 3.429 11.429 6.286 60.571 20 85.143 28.571v219.429l318.857-113.143q1.143 0 91.714 31.429t180.571 62 92.286 30.571q11.429 0 11.429-12v-238.857z" />
<glyph unicode="&#xe656;" glyph-name="currency1" data-tags="currency1" horiz-adv-x="757" d="M666.857 658.286q10.286-104-74.857-147.429 66.857-16 100-58.857t25.714-122.286q-4-40.571-18.571-71.429t-36.857-50.857-55.429-33.429-69.429-19.714-83.143-8.571v-145.714h-88v143.429q-45.714 0-69.714 0.571v-144h-88v145.714q-10.286 0-30.857 0.286t-31.429 0.286h-114.286l17.714 104.571h63.429q28.571 0 33.143 29.143v229.714h9.143q-3.429 0.571-9.143 0.571v164q-7.429 38.857-50.857 38.857h-63.429v93.714l121.143-0.571q36.571 0 55.429 0.571v144h88v-141.143q46.857 1.143 69.714 1.143v140h88v-144q45.143-4 80-12.857t64.571-25.714 47.143-44.571 20.857-65.429zM544 346.857q0 20.571-8.571 36.571t-21.143 26.286-32.857 17.429-37.429 10.571-42.286 5.143-39.429 1.714-36.857-0.571-27.143-0.571v-193.143q4.571 0 21.143-0.286t27.429-0.286 30.286 0.857 33.429 2.286 32.571 4.857 31.714 8 27.143 12 22.571 17.143 14 22.857 5.429 29.143zM503.429 618.857q0 18.857-7.143 33.429t-17.429 24-27.429 16-31.429 9.429-35.143 4.571-33.143 1.429-30.857-0.571-22.571-0.286v-175.429q2.857 0 19.714-0.286t26.571 0 28.571 1.143 31.429 3.143 29.429 6.286 27.714 10.571 21.143 15.429 15.429 22 5.143 29.143z" />
<glyph unicode="&#xe657;" glyph-name="currency2" data-tags="currency2" horiz-adv-x="1097" d="M438.857 365.714h219.429v54.857h-73.143v256h-65.143l-84.571-78.286 44-45.714q24 21.143 31.429 32.571h1.143v-164.571h-73.143v-54.857zM731.429 512q0-40-12-81.143t-34-76.571-58-57.714-78.857-22.286-78.857 22.286-58 57.714-34 76.571-12 81.143 12 81.143 34 76.571 58 57.714 78.857 22.286 78.857-22.286 58-57.714 34-76.571 12-81.143zM1024 365.714v292.571q-60.571 0-103.429 42.857t-42.857 103.429h-658.286q0-60.571-42.857-103.429t-103.429-42.857v-292.571q60.571 0 103.429-42.857t42.857-103.429h658.286q0 60.571 42.857 103.429t103.429 42.857zM1097.143 841.143v-658.286q0-14.857-10.857-25.714t-25.714-10.857h-1024q-14.857 0-25.714 10.857t-10.857 25.714v658.286q0 14.857 10.857 25.714t25.714 10.857h1024q14.857 0 25.714-10.857t10.857-25.714z" />
<glyph unicode="&#xe658;" glyph-name="shield1" data-tags="shield1" d="M512 921.6c0 0 153.6-102.4 358.4-102.4 0-563.2-358.4-716.8-358.4-716.8s-358.4 153.6-358.4 716.8c204.8 0 358.4 102.4 358.4 102.4zM512 512h256s51.2 51.2 51.2 256c0 0-256 51.2-307.2 102.4v-358.4h-256c51.2-204.8 256-358.4 256-358.4v358.4z" />
<glyph unicode="&#xe659;" glyph-name="shield2" data-tags="shield2" d="M512 921.6c0 0 153.6-102.4 358.4-102.4 0-563.2-358.4-716.8-358.4-716.8s-358.4 153.6-358.4 716.8c204.8 0 358.4 102.4 358.4 102.4z" />
<glyph unicode="&#xe65a;" glyph-name="linebreak" data-tags="linebreak" d="M819.2 819.2h102.4v-460.8h-563.2v-153.6l-256 204.8 256 204.8v-153.6h460.8v358.4z" />
<glyph unicode="&#xe65b;" glyph-name="link1" data-tags="link1" d="M908.288 882.688c86.016-86.528 86.016-225.792 0-312.32l-78.336-77.824c-57.344-57.344-138.24-75.264-211.968-55.808l134.144 133.632 38.912 39.424 38.912 38.912c43.008 43.008 43.008 112.64 0 155.648-43.008 43.52-112.64 43.52-155.648 0l-39.424-38.912-173.056-173.056c-18.944 73.728-1.024 154.624 56.32 211.968l77.824 78.336c86.528 86.016 226.304 86.016 312.32 0zM439.808 336.384l273.408 273.408c21.504 21.504 21.504 56.32 0 77.824-22.528 22.016-57.856 19.968-78.336 0l-272.896-273.408c-21.504-21.504-21.504-56.32 0-77.824 22.528-22.016 57.856-19.968 77.824 0zM400.896 219.136l211.968 212.48c19.456-73.728 1.536-154.624-55.808-211.968l-77.824-78.336c-86.528-86.016-225.792-86.016-312.32 0-86.016 86.016-86.016 226.304 0 312.32l78.336 77.824c57.344 57.344 138.24 75.264 211.968 56.32l-211.968-212.48c-43.52-43.008-43.52-112.64 0-156.16 43.008-43.008 112.64-43.008 155.648 0z" />
<glyph unicode="&#xe65c;" glyph-name="home1" data-tags="home1" d="M819.2 588.8l78.336-78.336-54.272-54.272-331.264 331.264-331.264-331.264-54.272 54.272 385.536 385.536 204.8-204.8v102.4h102.4v-204.8zM512 714.752l307.2-306.688v-305.664h-614.4v305.664zM614.4 153.6v256h-204.8v-256h204.8z" />
<glyph unicode="&#xe65d;" glyph-name="styling1" data-tags="styling1" d="M741.376 457.728l-361.984 361.984 76.8 76.8c25.6 28.672 117.76 24.064 179.712-16.384 61.952-40.96 73.216-65.536 148.992-107.52 60.416-32.768 125.44-64.512 227.84-43.52zM705.024 421.376l-361.984 361.984-90.624-90.624c-19.968-19.968-19.968-52.224 0-72.192l54.272-54.272c19.968-19.968 19.968-52.736 0-72.704-30.72-30.72-73.216-56.832-113.152-86.528-17.92-13.312-35.84-27.136-51.712-43.008-68.608-68.608-121.344-163.328-70.144-214.016 50.688-51.2 145.408 1.536 214.016 69.632 15.872 15.872 29.696 33.792 43.52 52.224 29.184 39.936 55.296 82.432 86.528 113.152 19.968 19.968 52.224 19.968 72.192 0l54.272-54.272c19.968-19.968 52.224-19.968 72.192 0z" />
<glyph unicode="&#xe65e;" glyph-name="alignleft1" data-tags="alignleft1" d="M614.4 768v102.4h-460.8v-102.4h460.8zM870.4 563.2v102.4h-716.8v-102.4h716.8zM614.4 358.4v102.4h-460.8v-102.4h460.8zM870.4 153.6v102.4h-716.8v-102.4h716.8z" />
<glyph unicode="&#xe65f;" glyph-name="aligncenter1" data-tags="aligncenter1" d="M716.8 768v102.4h-409.6v-102.4h409.6zM870.4 563.2v102.4h-716.8v-102.4h716.8zM716.8 358.4v102.4h-409.6v-102.4h409.6zM870.4 153.6v102.4h-716.8v-102.4h716.8z" />
<glyph unicode="&#xe660;" glyph-name="alignright1" data-tags="alignright1" d="M870.4 768v102.4h-460.8v-102.4h460.8zM870.4 563.2v102.4h-716.8v-102.4h716.8zM870.4 358.4v102.4h-460.8v-102.4h460.8zM870.4 153.6v102.4h-716.8v-102.4h716.8z" />
<glyph unicode="&#xe661;" glyph-name="alignjustify1" data-tags="alignjustify1" d="M102.4 870.4h819.2v-102.4h-819.2v102.4zM102.4 665.6h819.2v-102.4h-819.2v102.4zM102.4 460.8h819.2v-102.4h-819.2v102.4zM102.4 256h819.2v-102.4h-819.2v102.4z" />
<glyph unicode="&#xe662;" glyph-name="bold" data-tags="editor-bold" d="M307.2 819.2v-665.6h232.448c70.144 0 125.952 16.896 166.912 51.2 40.96 33.792 61.44 80.896 61.44 141.824 0 43.008-8.704 77.312-26.112 102.912s-46.080 43.52-85.504 52.736v4.608c29.184 5.12 52.224 20.48 69.632 46.080s26.112 57.856 26.112 97.792c0 58.368-19.968 101.376-59.904 128-39.424 27.136-103.424 40.448-191.488 40.448h-193.536zM438.784 555.52v147.968h69.632c37.376 0 65.024-5.632 82.432-16.384 17.408-11.264 26.112-29.696 26.112-54.784 0-27.648-8.192-47.104-24.064-58.88s-41.984-17.92-77.312-17.92h-76.8zM438.784 443.392h81.92c73.728 0 110.592-27.136 110.592-82.432 0-30.72-8.704-53.76-26.112-68.608s-44.032-22.016-80.384-22.016h-86.016v173.056z" />
<glyph unicode="&#xe663;" glyph-name="italic" data-tags="editor-italic" d="M756.736 716.8h-109.056l-143.36-460.8h108.544l-31.744-102.4h-345.6l31.744 102.4h109.568l143.36 460.8h-109.056l31.744 102.4h345.6z" />
<glyph unicode="&#xe664;" glyph-name="underline" data-tags="editor-underline" d="M716.8 768h-102.4v-292.352c0-101.888-57.344-152.576-125.44-152.576-67.584 0-130.56 51.2-130.56 151.552v293.376h-102.4v-300.544c0-97.792 51.2-232.448 229.376-232.448 178.688 0 231.424 132.096 231.424 230.4v302.592zM716.8 102.4v102.4h-460.8v-102.4h460.8z" />
<glyph unicode="&#xe665;" glyph-name="textcolor" data-tags="editor-textcolor" d="M677.376 256h97.28l-211.456 563.2h-102.4l-204.8-563.2h96.256l54.784 153.6h214.016zM599.040 488.448h-163.328l76.288 248.832z" />
<glyph unicode="&#xe666;" glyph-name="contract1" data-tags="contract1" d="M806.4 678.4l115.2 192v-716.8l-115.2 192 64 64h-204.8v-204.8l64 64 192-115.2h-819.2l192 115.2 64-64v204.8h-204.8l64-64-115.2-192v716.8l115.2-192-64-64h204.8v204.8l-64-64-192 115.2h819.2l-192-115.2-64 64v-204.8h204.8z" />
<glyph unicode="&#xe667;" glyph-name="fullscreen1" data-tags="fullscreen1" d="M307.2 870.4l-64-64 115.2-192-192 115.2-64-64v204.8h204.8zM716.8 870.4h204.8v-204.8l-64 64-192-115.2 115.2 192zM358.4 409.6v204.8h307.2v-204.8h-307.2zM102.4 358.4l64-64 192 115.2-115.2-192 64-64h-204.8v204.8zM716.8 153.6l64 64-115.2 192 192-115.2 64 64v-204.8h-204.8z" />
<glyph unicode="&#xe668;" glyph-name="update" data-tags="update" d="M512 870.4c107.008 0 203.264-47.104 268.8-121.856l-87.552-99.84c-41.472 54.784-107.008 91.136-181.248 91.136-108.032 0-198.144-75.776-221.184-176.64h118.784l-179.2-204.8-179.2 204.8h106.496c25.088 173.568 173.568 307.2 354.304 307.2zM512 151.552c-107.52 0-203.264 47.104-268.8 121.856l87.552 99.84c41.472-54.784 107.008-91.136 181.248-91.136 108.032 0 198.144 75.776 221.184 176.64h-118.784l179.2 204.8 179.2-204.8h-106.496c-25.088-173.568-174.080-307.2-354.304-307.2z" />
<glyph unicode="&#xe669;" glyph-name="help" data-tags="editor-help" d="M870.4 512c0 198.144-160.768 358.4-358.4 358.4-198.144 0-358.4-160.256-358.4-358.4s160.256-358.4 358.4-358.4c197.632 0 358.4 160.256 358.4 358.4zM547.84 436.224h-79.872v22.016c0 19.456 4.096 35.84 12.288 50.176s23.552 29.184 45.056 45.568c20.992 14.848 34.816 27.136 41.472 36.352 7.168 9.216 10.24 19.968 10.24 31.744 0 12.8-4.608 22.528-14.336 29.696-9.728 6.656-23.040 9.728-40.448 9.728-29.696 0-64-9.728-102.4-29.184l-32.768 65.536c44.544 25.088 92.16 37.888 141.824 37.888 41.472 0 74.24-10.24 98.304-29.696 24.576-19.968 36.352-46.592 36.352-79.36 0-22.016-4.608-40.96-14.848-56.832-9.728-16.384-29.184-34.304-56.832-54.272-19.456-14.336-31.232-25.088-36.352-32.256-5.12-7.68-7.68-17.408-7.68-29.184v-17.92zM472.576 295.936c-9.216 8.704-13.824 21.504-13.824 37.376 0 16.896 4.096 29.696 13.312 38.4s22.016 12.8 39.424 12.8c16.384 0 29.184-4.608 38.4-13.312s13.824-21.504 13.824-37.888c0-15.36-4.608-28.16-13.824-36.864-9.216-9.216-22.016-13.824-38.4-13.824-16.896 0-29.696 4.608-38.912 13.312z" />
<glyph unicode="&#xe66a;" glyph-name="warning" data-tags="warning" d="M512 921.6c226.304 0 409.6-183.296 409.6-409.6s-183.296-409.6-409.6-409.6-409.6 183.296-409.6 409.6 183.296 409.6 409.6 409.6zM569.856 441.344l17.92 330.752h-151.552l17.92-330.752h115.712zM565.248 269.312c12.288 11.776 18.944 28.16 18.944 49.152 0 21.504-6.144 37.888-18.432 49.664s-30.208 17.92-54.272 17.92-41.984-6.144-54.784-17.92-18.944-28.16-18.944-49.664c0-20.992 6.656-37.376 19.456-49.152 13.312-11.776 31.232-17.408 54.272-17.408s40.96 5.632 53.76 17.408z" />
<glyph unicode="&#xe66b;" glyph-name="erase1" data-tags="erase1" d="M731.648 788.992l56.32-56.832c20.992-20.48 31.232-48.128 31.232-75.264v-108.544c0-27.136-10.24-54.784-31.232-75.264l-339.456-339.456c-20.48-20.992-48.128-31.232-75.264-31.232s-54.784 10.24-75.264 31.232l-56.832 56.32-56.32 56.832c-20.992 20.48-31.232 48.128-31.232 75.264v108.544c0 27.648 10.24 54.784 31.232 75.776l339.456 338.944c20.48 20.992 48.128 31.232 75.264 31.232s54.272-10.24 75.264-31.232zM413.696 292.352l328.704 328.704c19.968 19.968 19.968 52.736 0 73.216l-109.568 109.568c-9.728 9.728-23.040 14.848-36.864 14.848s-26.624-5.12-36.352-14.848l-328.704-328.704c-19.968-20.48-19.968-53.248 0-73.216l109.568-109.568c19.456-19.456 53.248-19.456 73.216 0z" />
<glyph unicode="&#xe66c;" glyph-name="insertmore" data-tags="editor-insertmore" d="M870.4 665.6v204.8h-716.8v-204.8h716.8zM307.2 460.8v102.4h-153.6v-102.4h153.6zM614.4 460.8v102.4h-204.8v-102.4h204.8zM870.4 460.8v102.4h-153.6v-102.4h153.6zM870.4 153.6v204.8h-716.8v-204.8h716.8z" />
<glyph unicode="&#xe66d;" glyph-name="aligncenter12" data-tags="align-center" d="M153.6 768h716.8v102.4h-716.8v-102.4zM768 358.4v307.2h-512v-307.2h512zM153.6 153.6h716.8v102.4h-716.8v-102.4z" />
<glyph unicode="&#xe66e;" glyph-name="alignleft12" data-tags="align-left" d="M153.6 768h716.8v102.4h-716.8v-102.4zM614.4 358.4v307.2h-460.8v-307.2h460.8zM716.8 563.2h153.6v102.4h-153.6v-102.4zM716.8 358.4h153.6v102.4h-153.6v-102.4zM153.6 153.6h716.8v102.4h-716.8v-102.4z" />
<glyph unicode="&#xe66f;" glyph-name="alignnone1" data-tags="align-none" d="M153.6 768h716.8v102.4h-716.8v-102.4zM665.6 358.4v307.2h-512v-307.2h512zM153.6 153.6h716.8v102.4h-716.8v-102.4z" />
<glyph unicode="&#xe670;" glyph-name="alignright12" data-tags="align-right" d="M153.6 768h716.8v102.4h-716.8v-102.4zM153.6 563.2h153.6v102.4h-153.6v-102.4zM870.4 358.4v307.2h-460.8v-307.2h460.8zM153.6 358.4h153.6v102.4h-153.6v-102.4zM153.6 153.6h716.8v102.4h-716.8v-102.4z" />
<glyph unicode="&#xe671;" glyph-name="table1" data-tags="table1" d="M921.6 153.6v716.8h-819.2v-716.8h819.2zM819.2 665.6h-614.4v102.4h614.4v-102.4zM460.8 460.8h-256v102.4h256v-102.4zM819.2 460.8h-256v102.4h256v-102.4zM460.8 256h-256v102.4h256v-102.4zM819.2 256h-256v102.4h256v-102.4z" />
<glyph unicode="&#xe672;" glyph-name="table7" data-tags="table7" d="M102.4 972.8h819.2c28.16 0 51.2-23.040 51.2-51.2v-819.2c0-28.16-23.040-51.2-51.2-51.2h-819.2c-28.16 0-51.2 23.040-51.2 51.2v819.2c0 28.16 23.040 51.2 51.2 51.2zM461.312 563.712v307.2h-307.712v-307.2h307.712zM870.912 563.712v307.2h-307.2v-307.2h307.2zM461.312 153.6v307.2h-307.712v-307.2h307.712zM870.912 153.6v307.2h-307.2v-307.2h307.2z" />
<glyph unicode="&#xe673;" glyph-name="down1" data-tags="down1" d="M460.8 921.6h102.4v-614.4l204.8 204.8 102.4-51.2-358.4-358.4-358.4 358.4 102.4 51.2 204.8-204.8v614.4z" />
<glyph unicode="&#xe674;" glyph-name="down2" data-tags="down2" d="M256 716.8l256-256 256 256 102.4-51.2-358.4-358.4-358.4 358.4z" />
<glyph unicode="&#xe675;" glyph-name="down3" data-tags="down3" d="M768 614.4l-206.336-307.2-203.264 307.2h409.6z" />
<glyph unicode="&#xe676;" glyph-name="up1" data-tags="up1" d="M563.2 102.4h-102.4v614.4l-204.8-204.8-102.4 51.2 358.4 358.4 358.4-358.4-102.4-51.2-204.8 204.8v-614.4z" />
<glyph unicode="&#xe677;" glyph-name="up2" data-tags="up2" d="M768 307.2l-256 256-256-256-102.4 51.2 358.4 358.4 358.4-358.4z" />
<glyph unicode="&#xe678;" glyph-name="up3" data-tags="up3" d="M358.4 358.4l206.336 307.2 203.264-307.2h-409.6z" />
<glyph unicode="&#xe679;" glyph-name="left1" data-tags="left1" d="M921.6 563.2v-102.4h-614.4l204.8-204.8-51.2-102.4-358.4 358.4 358.4 358.4 51.2-102.4-204.8-204.8h614.4z" />
<glyph unicode="&#xe67a;" glyph-name="left2" data-tags="left2" d="M716.8 768l-256-256 256-256-51.2-102.4-358.4 358.4 358.4 358.4z" />
<glyph unicode="&#xe67b;" glyph-name="left3" data-tags="left3" d="M665.6 307.2l-307.2 206.336 307.2 203.264v-409.6z" />
<glyph unicode="&#xe67c;" glyph-name="right1" data-tags="right1" d="M102.4 460.8v102.4h614.4l-204.8 204.8 51.2 102.4 358.4-358.4-358.4-358.4-51.2 102.4 204.8 204.8h-614.4z" />
<glyph unicode="&#xe67d;" glyph-name="right2" data-tags="right2" d="M307.2 256l256 256-256 256 51.2 102.4 358.4-358.4-358.4-358.4z" />
<glyph unicode="&#xe67e;" glyph-name="right3" data-tags="right3" d="M409.6 716.8l307.2-206.336-307.2-203.264v409.6z" />
<glyph unicode="&#xe67f;" glyph-name="comment1" data-tags="comment1" d="M854 342v512h-684v-598l86 86h598zM854 938c46 0 84-38 84-84v-512c0-46-38-86-84-86h-598l-170-170v768c0 46 38 84 84 84h684z" />
<glyph unicode="&#xe680;" glyph-name="comment2" data-tags="comment2" d="M854 938c46 0 84-38 84-84v-512c0-46-38-86-84-86h-598l-170-170v768c0 46 38 84 84 84h684z" />
<glyph unicode="&#xe681;" glyph-name="comment3" data-tags="comment3" d="M170.667 981.333h682.667q53 0 90.5-37.5t37.5-90.5v-469.333q0-53-37.5-90.5t-90.5-37.5h-341.333l-298.667-213.333v213.333h-42.667q-53 0-90.5 37.5t-37.5 90.5v469.333q0 53 37.5 90.5t90.5 37.5zM853.333 896h-682.667q-17.667 0-30.167-12.5t-12.5-30.167v-469.333q0-17.667 12.5-30.167t30.167-12.5h128v-133l186 133h368.667q17.667 0 30.167 12.5t12.5 30.167v469.333q0 17.667-12.5 30.167t-30.167 12.5z" />
<glyph unicode="&#xe682;" glyph-name="numbers3" data-tags="numbers3" d="M993.792 506.283c5.888 18.987 8.875 38.827 8.875 59.051 0 111.744-90.923 202.667-202.667 202.667-59.563 0-114.56-26.027-152.448-69.632-0.896 0.896-1.493 1.963-2.389 2.859-41.515 41.557-100.224 65.408-161.109 65.408-60.672 0-119.211-23.723-160.853-65.067-11.264 18.389-27.477 34.688-47.872 47.275-20.224 12.544-44.032 19.157-68.821 19.157-20.565 0-40.747-4.651-58.411-13.483l-59.989-31.872c-61.525-30.763-87.509-107.776-56.021-170.752 11.605-23.168 30.464-41.899 53.248-54.272v-198.955c0-70.571 57.429-128 128-128 32.683 0 62.208 12.672 84.864 32.896 23.040-20.779 53.333-32.896 85.803-32.896h213.333c33.195 0 63.104 13.013 85.76 33.92 33.963-21.333 73.856-33.92 116.907-33.92 123.52 0 224 100.48 224 224 0 39.339-10.667 77.867-30.208 111.616zM256 298.667c0-23.552-19.115-42.667-42.667-42.667s-42.667 19.115-42.667 42.667v272.299c-6.144-3.072-13.056-4.523-20.096-4.523-17.109 0-34.688 8.661-42.155 23.595-10.539 21.077-1.323 46.72 19.755 57.259l58.069 30.891c6.016 2.987 13.099 4.48 20.267 4.48 8.491 0 17.067-2.133 23.936-6.357 12.544-7.808 25.557-21.504 25.557-36.309v-341.333zM597.333 256h-213.333c-17.237 0-32.811 10.411-39.424 26.325-6.613 15.957-2.944 34.304 9.259 46.507l170.667 170.667c10.837 10.837 16.811 25.216 16.811 40.533 0 15.275-5.973 29.653-16.811 40.491s-25.643 16.256-40.491 16.256-29.696-5.419-40.619-16.299c-10.752-10.752-16.725-25.131-16.725-40.448 0-23.552-19.115-42.667-42.667-42.667s-42.667 19.115-42.667 42.667c0 38.144 14.848 73.941 41.813 100.864s63.915 40.405 100.864 40.405 73.856-13.483 100.821-40.448c26.965-26.923 41.771-62.763 41.771-100.821 0-38.101-14.848-73.941-41.771-100.864l-97.835-97.835h110.336c23.552 0 42.667-19.115 42.667-42.667s-19.115-42.667-42.667-42.667zM800 256c-76.459 0-138.667 62.208-138.667 138.667 0 23.552 19.115 42.667 42.667 42.667s42.667-19.115 42.667-42.667c0-29.397 23.936-53.333 53.333-53.333s53.333 23.936 53.333 53.333-23.936 53.333-53.333 53.333c-23.552 0-42.667 19.115-42.667 42.667s19.115 42.667 42.667 42.667c17.664 0 32 14.336 32 32s-14.336 32-32 32c-11.989 0-22.869-6.613-28.373-17.237-7.595-14.635-22.485-23.040-37.931-23.040-6.613 0-13.312 1.536-19.584 4.779-20.949 10.837-29.099 36.565-18.261 57.515 20.267 39.040 60.16 63.317 104.149 63.317 64.683 0 117.333-52.608 117.333-117.333 0-26.069-8.832-49.92-23.253-69.419 27.264-25.344 44.587-61.184 44.587-101.248 0-76.459-62.208-138.667-138.667-138.667z" />
<glyph unicode="&#xe683;" glyph-name="numbers4" data-tags="numbers4" d="M170.667 256c-23.552 0-42.667 19.115-42.667 42.667v272.299l-23.595-11.776c-21.12-10.581-46.72-1.963-57.259 19.072-10.539 21.077-1.963 46.677 19.115 57.259l85.333 42.667c13.227 6.613 28.928 5.931 41.515-1.877 12.544-7.808 20.224-21.504 20.224-36.309v-341.333c0-23.552-19.115-42.667-42.667-42.667zM554.667 256h-213.333c-17.237 0-32.811 10.411-39.424 26.325-6.613 15.957-2.944 34.304 9.259 46.507l170.667 170.667c10.837 10.837 16.811 25.216 16.811 40.533 0 15.275-5.973 29.653-16.811 40.491-21.675 21.675-59.307 21.675-81.067-0.043-10.795-10.752-16.768-25.131-16.768-40.448 0-23.552-19.115-42.667-42.667-42.667s-42.667 19.115-42.667 42.667c0 38.144 14.848 73.941 41.813 100.864 53.973 53.888 147.797 53.888 201.685-0.043 26.965-26.923 41.771-62.763 41.771-100.821 0-38.101-14.848-73.941-41.771-100.864l-97.835-97.835h110.336c23.552 0 42.667-19.115 42.667-42.667s-19.115-42.667-42.667-42.667zM894.080 495.915c14.421 19.499 23.253 43.349 23.253 69.419 0 64.725-52.651 117.333-117.333 117.333-43.989 0-83.883-24.277-104.107-63.317-10.837-20.907-2.688-46.677 18.261-57.515 20.907-10.837 46.677-2.645 57.515 18.261 5.461 10.624 16.341 17.237 28.331 17.237 17.664 0 32-14.336 32-32s-14.336-32-32-32c-23.552 0-42.667-19.115-42.667-42.667s19.115-42.667 42.667-42.667c29.397 0 53.333-23.936 53.333-53.333s-23.936-53.333-53.333-53.333-53.333 23.936-53.333 53.333c0 23.552-19.115 42.667-42.667 42.667s-42.667-19.115-42.667-42.667c0-76.459 62.208-138.667 138.667-138.667s138.667 62.208 138.667 138.667c0 40.064-17.323 75.904-44.587 101.248z" />
<glyph unicode="&#xe684;" glyph-name="alignleft2" data-tags="alignleft2" d="M128 896h768v-86h-768v86zM128 128v86h768v-86h-768zM128 470v84h768v-84h-768zM640 726v-86h-512v86h512zM640 384v-86h-512v86h512z" />
<glyph unicode="&#xe685;" glyph-name="aligncenter2" data-tags="aligncenter2" d="M128 896h768v-86h-768v86zM298 726h428v-86h-428v86zM128 470v84h768v-84h-768zM128 128v86h768v-86h-768zM298 384h428v-86h-428v86z" />
<glyph unicode="&#xe686;" glyph-name="alignright2" data-tags="alignright2" d="M128 896h768v-86h-768v86zM384 640v86h512v-86h-512zM128 470v84h768v-84h-768zM384 298v86h512v-86h-512zM128 128v86h768v-86h-768z" />
<glyph unicode="&#xe687;" glyph-name="alignjustify2" data-tags="alignjustify2" d="M128 896h768v-86h-768v86zM128 640v86h768v-86h-768zM128 470v84h768v-84h-768zM128 298v86h768v-86h-768zM128 128v86h768v-86h-768z" />
<glyph unicode="&#xe688;" glyph-name="search3" data-tags="search3" d="M932.992 65.248l-22.688-22.688c-25.12-25.088-65.76-25.088-90.816 0l-181.632 181.568c-20.992 21.056-23.328 52.608-8.992 77.184l-99.328 99.264c-53.408-39.616-119.296-63.328-190.88-63.328-177.28 0-320.992 143.712-320.992 320.992 0 177.312 143.712 321.024 320.992 321.024 177.312 0 320.992-143.712 320.992-321.024 0-82.528-31.36-157.536-82.56-214.4l97.12-97.12c24.576 14.304 56.128 12 77.12-9.056l181.632-181.568c25.088-25.12 25.088-65.792 0.032-90.848zM578.816 659.552c0 132.96-107.808 240.736-240.768 240.736s-240.768-107.744-240.768-240.736 107.776-240.736 240.736-240.736 240.8 107.776 240.8 240.736z" />
<glyph unicode="&#xe689;" glyph-name="dismiss2" data-tags="dismiss2" d="M626.784 511.968l195.072-195.072c12.672-12.672 12.672-33.248 0-45.92l-68.832-68.832c-12.672-12.672-33.216-12.672-45.92 0l-195.104 195.072-195.104-195.072c-12.672-12.672-33.216-12.672-45.888 0l-68.864 68.832c-12.672 12.672-12.672 33.216 0 45.92l195.104 195.072-195.104 195.104c-12.672 12.672-12.672 33.248 0 45.92l68.896 68.832c12.672 12.672 33.216 12.672 45.888 0l195.072-195.104 195.104 195.104c12.672 12.672 33.216 12.672 45.92 0l68.832-68.864c12.672-12.672 12.672-33.216 0-45.92l-195.072-195.072z" />
<glyph unicode="&#xe68a;" glyph-name="numbers1" data-tags="numbers1" d="M512 928c-229.76 0-416-186.24-416-416s186.24-416 416-416 416 186.24 416 416-186.24 416-416 416zM512 160c-194.4 0-352 157.6-352 352s157.6 352 352 352 352-157.6 352-352-157.6-352-352-352zM474.496 617.312c-18.848-14.656-36.288-24.64-52.32-29.888v-55.744c30.496 10.048 56.992 25.568 79.488 46.56v-227.552h65.504v320h-53.952c-6.976-19.584-19.904-38.688-38.72-53.376z" />
<glyph unicode="&#xe68b;" glyph-name="numbers2" data-tags="numbers2" d="M512 928c-229.76 0-416-186.24-416-416s186.24-416 416-416 416 186.24 416 416-186.24 416-416 416zM568.224 302.848h-79.008v297.76c-28.832-26.912-62.848-46.816-102.016-59.744v71.488c20.608 6.752 43.008 19.584 67.168 38.464 24.192 18.88 40.736 40.896 49.76 66.048h64.096v-414.016z" />
<glyph unicode="&#xe68c;" glyph-name="currency8" data-tags="currency8" d="M1005.28 685.248l-320 320c-15.872 15.872-38.88 22.24-60.672 16.864-11.488-2.816-21.76-8.736-29.888-16.864-7.264-7.264-12.736-16.256-15.872-26.304-14.496-47.008-39.552-87.872-76.64-124.928-49.536-49.504-114.048-87.008-182.304-126.656-72.448-41.984-147.296-85.504-208.64-146.816-52.128-52.192-87.616-110.24-108.416-177.632-7.008-22.752-0.896-47.36 15.872-64.192l320-320c15.872-15.872 38.88-22.24 60.672-16.864 11.488 2.88 21.76 8.736 29.888 16.864 7.264 7.264 12.736 16.256 15.872 26.368 14.528 47.008 39.584 87.872 76.704 124.928 49.504 49.504 113.984 86.944 182.304 126.56 72.384 42.048 147.264 85.568 208.576 146.88 52.128 52.128 87.616 110.24 108.448 177.632 6.976 22.72 0.832 47.424-15.904 64.16zM384 64c-105.984 105.984-214.016 214.048-320 320 90.944 294.432 485.12 281.568 576 576 105.984-105.952 214.048-214.016 320.064-320-90.976-294.368-485.152-281.568-576.064-576zM625.984 547.2c-10.432 8.736-20.928 14.688-31.488 17.632-10.496 2.944-20.992 4.128-31.616 3.36-10.496-0.8-21.248-3.2-32-7.328-10.752-4.192-21.568-8.736-32.448-14.016-17.184 19.744-34.368 39.264-51.552 57.376 7.744 7.008 15.264 10.56 22.496 10.816 7.264 0.32 14.24-0.448 20.864-2.112 6.752-1.696 12.928-3.136 18.624-4.256 5.76-1.12 10.752 0.128 15.136 3.808 4.64 4 7.2 9.184 7.552 15.424 0.32 6.304-2.048 12.448-7.328 18.432-6.752 7.744-14.88 12.448-24.64 14.176-9.632 1.696-19.488 1.568-29.76-0.672-10.112-2.304-19.744-6.112-28.864-11.488s-16.448-10.88-21.888-16.256c-2.080 1.984-4.16 3.936-6.24 5.888-2.304 2.112-5.184 3.264-8.64 3.2-3.488 0-6.368-1.504-8.736-4.256-2.304-2.688-3.36-5.824-2.944-9.12 0.32-3.424 1.696-6.048 4.064-8.064 2.080-1.76 4.16-3.488 6.24-5.312-8.192-9.888-14.944-20.8-20.256-32.32-5.376-11.552-8.576-23.008-9.76-34.112-1.248-11.2-0.064-21.44 3.36-30.944 3.424-9.568 9.76-17.696 19.008-25.376 15.072-12.512 32.8-17.824 53.376-16.64 20.512 1.248 42.624 7.36 66.4 20.128 18.88-21.824 37.824-43.488 56.736-63.616-8-6.752-15.008-10.624-21.184-11.872-6.176-1.312-11.68-1.184-16.672 0.32-4.992 1.568-9.632 3.808-13.888 6.688-4.256 2.944-8.448 5.44-12.64 7.488-4.128 2.048-8.384 3.2-12.736 3.264s-8.992-2.048-14.112-6.432c-5.248-4.576-7.872-9.888-7.872-15.872 0-5.952 2.752-12 8.128-18.112 5.44-6.112 12.512-11.264 21.056-15.328s18.208-6.624 28.832-7.328c10.624-0.736 21.824 0.864 33.632 5.248 11.872 4.32 23.616 12.128 35.2 23.744 5.568-5.44 11.2-10.624 16.8-15.616 2.368-2.048 5.248-3.072 8.736-2.816 3.36 0.128 6.304 1.696 8.64 4.512 2.368 2.88 3.36 6.048 3.008 9.376-0.32 3.36-1.696 5.952-4 7.808-5.632 4.512-11.264 9.248-16.864 14.24 9.568 11.744 17.248 24.128 22.944 36.384 5.696 12.32 9.056 24.192 10.176 35.2 1.12 11.072-0.192 21.056-3.808 30.112-3.584 9.184-9.952 17.056-19.072 24.64zM447.072 525.504c-9.056-0.384-16.96 2.624-23.872 9.312-2.944 2.816-4.992 6.24-6.24 10.304-1.312 4.064-1.76 8.512-1.248 13.376 0.448 4.8 1.888 9.824 4.384 14.88 2.368 5.056 5.888 10.112 10.368 15.008 16.224-16.128 32.416-33.824 48.64-52.128-12.288-6.752-22.976-10.368-32.032-10.752zM598.016 461.44c-2.88-5.312-6.176-10.048-10.048-14.176-17.952 18.112-35.872 38.016-53.76 58.432 4.576 2.048 9.376 4.192 14.56 6.368s10.368 3.616 15.552 4.512c5.312 0.8 10.56 0.576 15.808-0.672 5.184-1.312 10.112-4.128 14.688-8.576 4.512-4.512 7.36-9.184 8.512-14.24 1.248-5.12 1.312-10.304 0.448-15.616-0.928-5.344-2.816-10.656-5.76-16.032zM470.944 314.24c6.304 5.088 15.584 4.832 21.376-1.056 6.272-6.24 6.272-16.448 0-22.688-0.512-0.512-1.056-0.864-1.632-1.312l0.064-0.064c-20.256-15.392-36.896-29.248-54.848-47.2-16.224-16.192-30.88-33.248-43.552-50.56l-20.448-28c-0.64-1.152-1.408-2.208-2.368-3.2-6.272-6.24-16.48-6.24-22.72 0-5.44 5.44-6.112 13.824-2.112 20.064l-0.064 0.064 21.888 29.888c13.664 18.688 29.376 36.992 46.752 54.368 18.080 18.144 37.6 34.336 57.6 49.696h0.064zM588.096 777.12c16.192 16.192 30.816 33.184 43.52 50.592l21.248 29.12c0.768 1.376 1.632 2.752 2.816 3.936 6.304 6.304 16.512 6.304 22.816 0 5.984-6.016 6.24-15.52 0.8-21.888l0.064-0.064-21.888-30.016c-13.696-18.688-29.376-36.928-46.752-54.304-18.080-18.080-37.568-34.336-57.568-49.696l-0.128 0.064c-6.368-5.856-16.256-5.728-22.368 0.448-6.304 6.304-6.304 16.576 0 22.88 1.12 1.184 2.432 2.016 3.744 2.752 18.816 14.368 36.96 29.44 53.696 46.176z" />
<glyph unicode="&#xe68d;" glyph-name="currency9" data-tags="currency9" d="M0 224v576h1024v-576h-1024zM64 737.984v-449.984h896v449.984h-896zM672 512c0 106.016-71.616 192-160 192h416v-384h-416c88.384 0 160 85.984 160 192zM800 448c26.496 0 48 28.672 48 64s-21.504 64-48 64-48-28.672-48-64 21.504-64 48-64zM579.776 592.704c-0.48-1.76-1.152-3.008-1.984-3.808-0.864-0.8-2.016-1.184-3.488-1.184s-3.776 0.896-7.008 2.752c-3.2 1.888-7.136 3.872-11.776 6.048-4.672 2.176-10.048 4.16-16.192 5.984-6.144 1.792-12.864 2.656-20.192 2.656-5.76 0-10.752-0.672-15.008-2.080-4.256-1.376-7.84-3.328-10.688-5.76-2.88-2.464-4.992-5.44-6.4-8.864-1.376-3.424-2.080-7.104-2.080-10.944 0-5.76 1.568-10.72 4.704-14.912s7.328-7.936 12.608-11.2c5.28-3.296 11.232-6.336 17.92-9.184 6.624-2.88 13.44-5.92 20.384-9.088 6.944-3.232 13.728-6.848 20.384-10.912 6.688-4.064 12.64-8.928 17.824-14.592s9.376-12.32 12.608-19.968c3.2-7.68 4.768-16.672 4.768-27.104 0-13.6-2.496-25.504-7.552-35.776-5.088-10.24-11.936-18.816-20.64-25.664-8.672-6.88-18.784-12.032-30.368-15.488-1.472-0.448-3.072-0.64-4.576-0.992v-34.944h-31.456v30.816c-0.416 0-0.768-0.064-1.152-0.064-8.928 0-17.248 0.704-24.896 2.144-7.68 1.472-14.432 3.232-20.288 5.248-5.888 2.048-10.752 4.192-14.688 6.432s-6.752 4.224-8.48 5.952c-1.728 1.728-2.976 4.224-3.712 7.488-0.736 3.296-1.12 7.968-1.12 14.112 0 4.128 0.128 7.584 0.416 10.4s0.704 5.056 1.312 6.816 1.376 2.976 2.4 3.712c0.992 0.704 2.144 1.088 3.488 1.088 1.856 0 4.48-1.088 7.904-3.296 3.392-2.208 7.776-4.64 13.088-7.296 5.344-2.688 11.68-5.088 19.104-7.328 7.392-2.176 15.968-3.296 25.696-3.296 6.4 0 12.128 0.768 17.184 2.304s9.376 3.68 12.896 6.496 6.208 6.272 8.096 10.4c1.888 4.16 2.816 8.736 2.816 13.856 0 5.856-1.632 10.88-4.8 15.104-3.2 4.192-7.36 7.904-12.512 11.2-5.12 3.264-10.944 6.304-17.472 9.184s-13.248 5.92-20.192 9.088c-6.912 3.2-13.664 6.816-20.192 10.912-6.528 4.064-12.352 8.896-17.472 14.56s-9.312 12.384-12.48 20.096c-3.2 7.712-4.8 16.992-4.8 27.776 0 12.416 2.304 23.296 6.88 32.672 4.608 9.376 10.784 17.184 18.592 23.36s16.992 10.816 27.584 13.888c5.44 1.6 11.072 2.72 16.832 3.488v33.088h31.456v-33.088c1.248-0.16 2.496-0.096 3.744-0.288 6.112-0.928 11.872-2.176 17.184-3.776 5.344-1.568 10.048-3.328 14.208-5.344 4.128-1.984 6.848-3.616 8.192-4.96 1.344-1.312 2.208-2.432 2.72-3.36 0.448-0.928 0.832-2.176 1.184-3.712 0.32-1.536 0.576-3.456 0.672-5.824 0.128-2.304 0.192-5.216 0.192-8.672 0-3.872-0.096-7.168-0.288-9.856-0.288-2.528-0.608-4.768-1.088-6.496zM352 512c0-106.016 71.616-192 160-192h-416v384h416c-88.384 0-160-85.984-160-192zM224 576c-26.528 0-48-28.672-48-64s21.472-64 48-64c26.496 0 48 28.672 48 64s-21.504 64-48 64z" />
<glyph unicode="&#xe68e;" glyph-name="currency10" data-tags="currency10" horiz-adv-x="1216" d="M1152.064 287.68l1.824 546.848-993.6-0.608-0.032 62.72h1055.744v-608.992l-63.936 0.032zM1119.84 191.456l-63.904 0.064 1.824 546.848-993.6-0.64-0.032 62.72h1055.744v-608.992zM1025.696 127.36h-1025.696v576.96h1025.696v-576.96zM961.568 642.208h-897.472v-450.752h897.44v450.752zM865.44 239.52c0-5.664 1.408-10.944 3.232-16h-355.84c88.512 0 160.288 86.080 160.288 192.32s-71.776 192.32-160.288 192.32h355.808c-1.824-5.056-3.232-10.336-3.232-16.032 0-26.56 21.504-48.064 48.064-48.064 5.696 0 10.976 1.408 16.032 3.232v-262.88c-5.056 1.792-10.336 3.232-16.032 3.232-26.528-0.032-48.032-21.568-48.032-48.128zM801.312 482.592c-26.56 0-48.064-28.672-48.064-64.096s21.504-64.096 48.064-64.096 48.064 28.672 48.064 64.096-21.504 64.096-48.064 64.096zM579.936 531.392c0.48-0.928 0.864-2.176 1.184-3.712 0.352-1.536 0.576-3.488 0.672-5.824 0.16-2.336 0.224-5.248 0.224-8.736 0-3.872-0.096-7.168-0.288-9.824-0.224-2.688-0.576-4.896-0.992-6.624-0.512-1.76-1.152-3.040-1.984-3.808-0.864-0.8-2.048-1.216-3.52-1.216s-3.776 0.928-7.008 2.784c-3.232 1.888-7.168 3.872-11.808 6.048s-10.080 4.192-16.224 5.984-12.864 2.688-20.224 2.688c-5.76 0-10.752-0.672-15.008-2.080-4.288-1.408-7.872-3.328-10.72-5.792-2.88-2.464-5.024-5.44-6.4-8.864-1.408-3.456-2.112-7.136-2.112-10.976 0-5.76 1.568-10.72 4.704-14.944 3.136-4.192 7.328-7.936 12.64-11.2 5.28-3.296 11.264-6.336 17.92-9.216s13.472-5.92 20.416-9.088c6.944-3.232 13.76-6.848 20.448-10.944 6.688-4.064 12.64-8.928 17.824-14.592 5.216-5.696 9.44-12.352 12.64-20.032s4.8-16.704 4.8-27.136c0-13.6-2.56-25.568-7.616-35.808-5.056-10.272-11.936-18.88-20.64-25.76s-18.816-12.032-30.432-15.488c-1.472-0.448-3.072-0.64-4.576-0.992v-35.008h-31.52v30.88c-0.416 0-0.768-0.096-1.184-0.096-8.928 0-17.248 0.736-24.928 2.176-7.68 1.472-14.464 3.232-20.32 5.248-5.888 2.048-10.784 4.224-14.72 6.464-3.968 2.24-6.784 4.224-8.512 5.952s-2.976 4.224-3.712 7.488-1.12 8-1.12 14.144c0 4.128 0.128 7.616 0.416 10.4 0.256 2.816 0.704 5.088 1.312 6.848 0.608 1.728 1.408 2.976 2.4 3.712 0.992 0.704 2.176 1.088 3.488 1.088 1.888 0 4.512-1.088 7.936-3.328 3.392-2.176 7.776-4.64 13.12-7.296s11.712-5.088 19.136-7.296c7.392-2.208 16-3.328 25.728-3.328 6.4 0 12.16 0.768 17.216 2.304 5.088 1.536 9.376 3.712 12.928 6.496 3.52 2.816 6.208 6.304 8.096 10.432 1.888 4.16 2.816 8.768 2.816 13.856 0 5.888-1.632 10.944-4.8 15.136-3.2 4.224-7.36 7.936-12.512 11.232-5.152 3.264-10.976 6.336-17.504 9.184-6.56 2.88-13.28 5.92-20.224 9.12s-13.696 6.848-20.224 10.912c-6.528 4.064-12.384 8.928-17.504 14.624-5.12 5.664-9.312 12.384-12.512 20.096-3.2 7.744-4.8 17.024-4.8 27.84 0 12.416 2.304 23.328 6.912 32.704 4.608 9.408 10.816 17.216 18.624 23.424 7.808 6.176 17.024 10.848 27.616 13.92 5.44 1.568 11.072 2.72 16.864 3.488v33.12h31.52v-33.12c1.248-0.16 2.496-0.096 3.744-0.288 6.144-0.928 11.904-2.176 17.248-3.776 5.312-1.6 10.048-3.36 14.176-5.376 4.16-1.984 6.88-3.616 8.256-4.96 1.248-1.184 2.144-2.304 2.624-3.264zM352.576 415.84c0-106.208 71.744-192.32 160.256-192.32h-355.808c1.792 5.056 3.232 10.336 3.232 16 0 26.56-21.536 48.096-48.064 48.096-5.696 0-10.976-1.44-16.032-3.232v262.88c5.056-1.824 10.336-3.232 16.032-3.232 26.56 0 48.064 21.504 48.064 48.064 0 5.696-1.44 10.976-3.232 16.032h355.808c-88.512 0.032-160.256-86.080-160.256-192.288zM224.352 482.592c-26.56 0-48.064-28.672-48.064-64.096s21.536-64.096 48.064-64.096c26.56 0 48.064 28.672 48.064 64.096s-21.504 64.096-48.064 64.096z" />
<glyph unicode="&#xe68f;" glyph-name="currency11" data-tags="currency11" d="M912 288h-391.872c11.488 19.808 20.288 41.28 26.112 64h365.76c17.696 0 32-14.304 32-32 0-17.664-14.304-32-32-32zM912 384h-359.552c1.312 10.496 2.208 21.152 2.208 32 0 10.88-0.896 21.504-2.208 32h359.552c17.696 0 32-14.304 32-32 0-17.664-14.304-32-32-32zM912 480h-365.76c-5.856 22.72-14.624 44.192-26.112 64h391.872c17.696 0 32-14.304 32-32 0-17.664-14.304-32-32-32zM912 576h-413.696c-20.8 25.952-46.496 47.776-75.808 64h489.504c17.696 0 32-14.304 32-32 0-17.664-14.304-32-32-32zM912 672h-512c-17.696 0-32 14.336-32 32 0 17.696 14.304 32 32 32h512c17.696 0 32-14.304 32-32 0-17.664-14.304-32-32-32zM912 768h-512c-17.696 0-32 14.336-32 32 0 17.696 14.304 32 32 32h512c17.696 0 32-14.304 32-32 0-17.664-14.304-32-32-32zM528 416c0-123.712-100.32-224-224-224-123.712 0-224 100.288-224 224s100.288 224 224 224c123.68 0 224-100.288 224-224zM383.296 391.648c-3.232 7.648-7.392 14.304-12.608 19.968s-11.136 10.528-17.792 14.592c-6.656 4.064-13.44 7.68-20.384 10.912-6.944 3.2-13.728 6.208-20.384 9.088-6.656 2.848-12.64 5.92-17.888 9.184-5.28 3.264-9.472 7.008-12.608 11.2s-4.704 9.152-4.704 14.912c0 3.84 0.704 7.488 2.080 10.944 1.408 3.424 3.52 6.4 6.4 8.864 2.848 2.432 6.432 4.384 10.688 5.76 4.256 1.408 9.28 2.080 15.008 2.080 7.328 0 14.048-0.864 20.192-2.656 6.112-1.824 11.52-3.776 16.192-5.984 4.672-2.176 8.608-4.192 11.808-6.048s5.536-2.752 7.008-2.752 2.624 0.384 3.488 1.184c0.832 0.8 1.536 2.048 1.984 3.808 0.48 1.728 0.768 3.936 0.992 6.592 0.192 2.688 0.288 5.984 0.288 9.856 0 3.456-0.064 6.368-0.192 8.672-0.128 2.336-0.384 4.288-0.672 5.824-0.352 1.536-0.736 2.784-1.184 3.712-0.512 0.928-1.376 2.048-2.72 3.36-1.344 1.344-4.064 3.008-8.192 4.96-4.128 1.984-8.864 3.776-14.176 5.344-5.344 1.6-11.072 2.848-17.184 3.776-1.248 0.192-2.528 0.128-3.776 0.288v33.088h-31.488v-33.088c-5.792-0.768-11.392-1.92-16.832-3.488-10.592-3.072-19.776-7.68-27.584-13.888s-14.016-14.016-18.592-23.36c-4.608-9.408-6.88-20.288-6.88-32.672 0-10.784 1.6-20.064 4.768-27.776 3.2-7.712 7.36-14.432 12.512-20.096s10.944-10.496 17.472-14.56c6.528-4.096 13.28-7.712 20.192-10.912 6.944-3.2 13.664-6.208 20.192-9.088s12.352-5.952 17.472-9.184c5.152-3.296 9.312-7.008 12.512-11.2 3.2-4.224 4.8-9.248 4.8-15.104 0-5.088-0.928-9.696-2.784-13.856-1.888-4.128-4.576-7.584-8.096-10.4s-7.808-4.96-12.864-6.496c-5.088-1.536-10.784-2.304-17.216-2.304-9.728 0-18.304 1.088-25.696 3.296s-13.76 4.64-19.104 7.328c-5.344 2.656-9.696 5.056-13.088 7.296-3.392 2.176-6.016 3.296-7.904 3.296-1.344 0-2.528-0.384-3.488-1.088-1.024-0.736-1.824-1.984-2.4-3.712-0.608-1.76-1.024-4-1.312-6.816s-0.416-6.272-0.416-10.4c0-6.144 0.384-10.848 1.088-14.112 0.736-3.296 1.984-5.792 3.712-7.488 1.728-1.728 4.544-3.68 8.48-5.952s8.832-4.384 14.688-6.432c5.856-2.016 12.64-3.776 20.288-5.248 7.648-1.44 15.968-2.144 24.896-2.144 0.384 0 0.736 0.064 1.152 0.064v-30.816h31.456v34.944c1.504 0.384 3.104 0.576 4.576 0.992 11.584 3.456 21.728 8.64 30.4 15.488s15.52 15.392 20.608 25.664c5.056 10.272 7.552 22.176 7.552 35.776 0.032 10.336-1.568 19.328-4.736 27.008zM498.304 256h413.696c17.696 0 32-14.304 32-32 0-17.664-14.304-32-32-32h-489.504c29.312 16.224 55.008 38.048 75.808 64z" />
</font>
</defs>
</svg>
