<?xml version="1.0" standalone="no"?>
<!DOCTYPE svg PUBLIC "-//W3C//DTD SVG 1.1//EN" "http://www.w3.org/Graphics/SVG/1.1/DTD/svg11.dtd" >
<svg xmlns="http://www.w3.org/2000/svg">
<metadata></metadata>
<defs>
<font id="nchlightboxregular" horiz-adv-x="2048" >
<font-face units-per-em="2048" ascent="1638" descent="-410" />
<missing-glyph horiz-adv-x="500" />
<glyph horiz-adv-x="0" />
<glyph unicode="&#xd;" />
<glyph unicode="+" d="M0 995q0 -189 75 -376t217 -331q194 -192 451 -260t515 0t450 260t260 450t0 515t-260 449q-144 144 -328 218t-380 75t-380 -74t-328 -219t-218 -331t-74 -376zM140 995q0 163 64 324t188 284t282 188t326 65t326 -65t282 -187q166 -166 224 -388t0 -443t-224 -386 t-387 -224t-442 0t-387 223q-124 124 -188 285t-64 324zM596 922h334v-336h140v336h334v138h-334v336h-140v-336h-334v-138z" />
<glyph unicode="-" d="M32 738q68 -258 261 -450t450 -260t515 0t450 260t260 450t0 515t-260 449q-144 144 -328 218t-380 75t-380 -74t-328 -219q-192 -192 -260 -449t0 -515zM168 773q-58 221 0 443t224 388q124 122 282 187t326 65t326 -65t282 -187q166 -166 224 -388t0 -443t-224 -386 t-387 -224t-442 0t-387 224t-224 386zM596 922h808v138h-808v-138z" />
<glyph unicode="&#x3c;" d="M0 995q0 -203 79 -388t213 -319t319 -213t389 -79t389 79t319 213t213 319t79 388t-79 388t-213 319t-319 214t-389 80t-389 -80t-319 -214t-213 -319t-79 -388zM140 996q0 232 115 430t313 314t432 116q176 0 335 -69t274 -184t183 -274t68 -333q0 -234 -115 -432 t-313 -313t-432 -115q-174 0 -334 68t-275 183t-183 274t-68 335zM654 996q0 -32 24 -54l400 -400q22 -22 51 -22t51 22q14 14 19 32t0 37t-19 31v2l-352 352l350 350l2 2q10 10 15 23t5 27t-5 27t-15 23q-22 22 -52 22t-50 -22l-396 -396q-28 -22 -28 -56z" />
<glyph unicode="&#x3e;" d="M0 995q0 203 79 388t213 319t319 214t389 80t389 -80t319 -214t213 -319t79 -387q0 -164 -50 -317t-143 -276t-216 -215t-276 -142t-315 -50q-204 0 -389 79t-319 213t-213 319t-79 388zM140 995q0 -233 115 -431t313 -313t432 -115t432 115t313 313t115 431t-115 431 t-313 314t-432 116t-432 -116t-313 -314t-115 -431zM800 1398q0 14 5 27t15 23q22 22 52 22t50 -22l396 -396q28 -22 28 -56q0 -32 -24 -54l-400 -400q-22 -22 -51 -22t-51 22q-14 14 -19 32t0 37t19 31v2l352 352l-350 350l-2 2q-10 10 -15 23t-5 27z" />
<glyph unicode="f" d="M32 737q68 -257 261 -449t450 -260q129 -34 257.5 -34t257.5 34q258 68 450 260t260 450q34 129 34 257.5t-34 257.5q-68 257 -260 449q-144 144 -328 218t-380 75h-5q-193 0 -375 -74q-184 -75 -328 -219q-192 -192 -260 -450q-34 -129 -34 -257.5t34 -257.5zM168 773 q-29 111 -29 221.5t29 221.5q58 222 224 388q124 122 282 187t326 65t326 -65t282 -187q166 -166 224 -387q29 -111 29 -221.5t-29 -221.5q-58 -222 -224 -387t-387 -224q-111 -29 -221 -29l-221 29q-221 59 -387 224t-224 386zM560 556h482l-184 182l400 400l182 -180v476 h-486l198 -196l-400 -400l-192 190v-472z" />
<glyph unicode="h" d="M0 995q0 -415 292 -707q194 -192 451 -260q128 -34 257 -34t258 34q258 68 450 260t260 450q34 129 34 257.5t-34 257.5q-68 257 -260 449q-262 260 -628 290l-80 4q-130 0 -254 -33t-241 -99t-213 -162q-292 -292 -292 -707zM168 773q-29 110 -29 221t29 222 q58 222 224 388q42 40 88 76t95 63t101 49t106 35t108 20t110 7q168 0 326 -64t282 -186q166 -166 224 -388q29 -111 29 -221.5t-29 -221.5q-58 -221 -224 -386t-387 -224q-110 -30 -221 -29l-221 29q-221 59 -387 224t-224 386zM504 994q0 -44 22 -83t60 -61t84 -22 q74 0 122 52l196 -112q-10 -26 -10 -54q0 -34 13 -65t36 -54t54 -36t65 -13q68 0 117 49t49 119q0 26 -8 52t-24 46t-36 36t-46 24t-52 8q-38 0 -70 -15t-56 -41l-194 112q6 14 9 29t3 29q0 32 -12 60l198 116q12 -12 25 -22t29 -17t33 -10t35 -3q44 0 83 22t61 60t22 84 q0 70 -49 119t-118 49t-118 -49t-49 -119q0 -30 12 -60l-198 -114q-50 52 -122 52q-70 0 -118 -49t-48 -119z" />
<glyph unicode="i" d="M32 738q68 -258 260 -450t450 -260q129 -34 258 -34l258 34q258 68 450 260t260 450q34 129 34 257.5t-34 257.5q-68 257 -260 449q-144 144 -328 218t-380 75h-5q-193 0 -375 -74q-184 -75 -328 -219q-192 -192 -260 -449q-34 -128 -34 -257t34 -258zM140 995 q0 163 64 324t188 284t282 188t326 65t326 -65t282 -187q166 -166 224 -388q29 -111 29 -221.5t-29 -221.5q-58 -221 -224 -387q-252 -252 -608 -252t-608 252q-124 124 -188 285t-64 324zM810 530h378v124h-126v408v124h-250v-124h124v-408h-126v-124zM892 1404 q0 -30 14 -54t38 -38t52 -14t52 14t38 38t14 53t-14 53t-38 38t-52 14q-44 0 -74 -31t-30 -73z" />
<glyph unicode="k" d="M0 995q0 -189 75 -376t218 -331t330 -219t377 -75t377 75t331 219q114 116 186 259t94 296q11 76 11 152.5t-11 152.5q-22 152 -94 295t-186 259q-144 144 -328 218t-380 76q-130 0 -254 -33t-241 -99t-213 -162q-144 -144 -218 -331t-74 -376zM168 773q-29 110 -29 221 t29 222q58 222 224 388q82 82 183 139t207 85t218 28q168 0 326 -65t282 -187q166 -166 224 -387q29 -110 29 -221t-29 -222q-58 -222 -224 -387t-387 -224q-110 -30 -221 -29l-221 29q-221 59 -387 224t-224 386zM462 956l196 -196l-180 -182l102 -102l186 184l180 -180 v476h-484zM1040 1050h480l-182 182l182 184l-102 102l-188 -186l-190 190v-472z" />
<glyph unicode="o" d="M0 994q0 -202 79 -387t213 -319t319 -213t389 -79t389 79t319 213t213 319t79 388t-79 388t-213 319t-319 214t-389 80q-162 0 -315 -51t-276 -143t-216 -215t-143 -276t-50 -317zM140 994q0 176 68 335t183 274t275 184t334 69q234 0 432 -116t313 -314t115 -432 q0 -328 -220 -574q-214 -238 -530 -278l-110 -8q-234 0 -432 116t-313 314t-115 430z" />
<glyph unicode="p" d="M0 995q0 -189 75 -376t217 -331q194 -192 451 -260q129 -34 257.5 -34t257.5 34q258 68 450 260q142 144 217 331t75 376t-75 376t-217 331q-262 260 -628 290q-40 2 -80 2h-10q-191 0 -370 -73q-184 -75 -328 -219t-218 -331t-74 -376zM168 773q-29 111 -29 221.5 t29 221.5q58 222 224 388q82 82 183 139t207 84t218 27q168 0 326 -64t282 -187t188 -284t64 -324t-64 -324t-188 -285q-166 -164 -387 -223q-111 -29 -221 -29l-221 29q-221 59 -387 224t-224 386zM712 680l732 308l-732 316v-624z" />
<glyph unicode="s" d="M32 737q68 -257 261 -449t450 -260q128 -34 257 -34t258 34q258 68 450 260q142 144 217 331t75 376t-75 376t-217 331q-42 42 -88 78t-94 66t-99 54t-103 42t-106 30t-109 17t-109 7q-196 0 -380 -75t-328 -219q-192 -192 -260 -450q-34 -129 -34 -258t34 -257zM140 995 q0 163 64 324t188 284t282 188t326 65t326 -65t282 -187q166 -166 224 -387q29 -110 29 -221t-29 -222q-58 -222 -224 -387t-387 -224q-110 -30 -221 -29l-221 29q-221 59 -387 223q-124 124 -188 285t-64 324zM664 660h672v672h-672v-672z" />
<glyph unicode="x" d="M32 737q68 -257 261 -449t450 -260q128 -34 257 -34l257 34q257 68 450 260t261 449q34 128 34 257t-34 258q-68 258 -260 450t-450 260q-129 34 -258 34l-258 -34q-258 -68 -450 -260t-260 -450q-34 -129 -34 -258t34 -257zM168 773q-29 110 -29 221t29 222 q58 222 224 387t387 224q110 29 221 29l221 -29q221 -59 387 -225q124 -122 188 -283t64 -324t-64 -324t-188 -285q-166 -164 -387 -223q-110 -30 -221 -29.5t-222 29.5q-222 59 -387 224t-223 386zM624 1301q0 -29 20 -49h2l254 -254l-256 -254l-4 -6h2q-12 -12 -16 -30 t1 -34t17 -30q20 -18 47 -19h3q25 0 44 15h2l4 4l254 256l254 -256l4 -4h2q19 -15 44 -15h3q27 1 46 20t20 46t-15 47l-4 6l-256 254l254 254h2q20 20 20 49t-21 50t-49 21t-50 -22l-254 -254l-254 254q-23 23 -48 23q-17 0 -36 -11q-10 -6 -16 -12q-20 -20 -20 -49z" />
<glyph unicode="&#xad;" d="M32 738q68 -258 261 -450t450 -260t515 0t450 260t260 450t0 515t-260 449q-144 144 -328 218t-380 75t-380 -74t-328 -219q-192 -192 -260 -449t0 -515zM168 773q-58 221 0 443t224 388q124 122 282 187t326 65t326 -65t282 -187q166 -166 224 -388t0 -443t-224 -386 t-387 -224t-442 0t-387 224t-224 386zM596 922h808v138h-808v-138z" />
<glyph unicode="&#x2000;" horiz-adv-x="1024" />
<glyph unicode="&#x2001;" />
<glyph unicode="&#x2002;" horiz-adv-x="1024" />
<glyph unicode="&#x2003;" />
<glyph unicode="&#x2004;" horiz-adv-x="682" />
<glyph unicode="&#x2005;" horiz-adv-x="512" />
<glyph unicode="&#x2006;" horiz-adv-x="341" />
<glyph unicode="&#x2007;" horiz-adv-x="341" />
<glyph unicode="&#x2008;" horiz-adv-x="256" />
<glyph unicode="&#x2009;" horiz-adv-x="409" />
<glyph unicode="&#x200a;" horiz-adv-x="113" />
<glyph unicode="&#x2010;" d="M32 738q68 -258 261 -450t450 -260t515 0t450 260t260 450t0 515t-260 449q-144 144 -328 218t-380 75t-380 -74t-328 -219q-192 -192 -260 -449t0 -515zM168 773q-58 221 0 443t224 388q124 122 282 187t326 65t326 -65t282 -187q166 -166 224 -388t0 -443t-224 -386 t-387 -224t-442 0t-387 224t-224 386zM596 922h808v138h-808v-138z" />
<glyph unicode="&#x2011;" d="M32 738q68 -258 261 -450t450 -260t515 0t450 260t260 450t0 515t-260 449q-144 144 -328 218t-380 75t-380 -74t-328 -219q-192 -192 -260 -449t0 -515zM168 773q-58 221 0 443t224 388q124 122 282 187t326 65t326 -65t282 -187q166 -166 224 -388t0 -443t-224 -386 t-387 -224t-442 0t-387 224t-224 386zM596 922h808v138h-808v-138z" />
<glyph unicode="&#x2012;" d="M32 738q68 -258 261 -450t450 -260t515 0t450 260t260 450t0 515t-260 449q-144 144 -328 218t-380 75t-380 -74t-328 -219q-192 -192 -260 -449t0 -515zM168 773q-58 221 0 443t224 388q124 122 282 187t326 65t326 -65t282 -187q166 -166 224 -388t0 -443t-224 -386 t-387 -224t-442 0t-387 224t-224 386zM596 922h808v138h-808v-138z" />
<glyph unicode="&#x2013;" horiz-adv-x="1068" d="M15.5 738q34.5 -258 133 -450t230 -260t263.5 0t230 260t132.5 450t0 515t-132.5 449q-74 144 -168 218t-194 75t-194 -74t-168 -219q-98 -192 -132.5 -449t0 -515zM85 773q-30 221 0 443t114 388q64 122 144.5 187t166.5 65t166.5 -65t144.5 -187q84 -166 114 -388 t0 -443t-114.5 -386t-197.5 -224t-226 0t-197.5 224t-114.5 386zM304 922h412v138h-412v-138z" />
<glyph unicode="&#x2014;" horiz-adv-x="2092" d="M32.5 738q69.5 -258 267 -450t460 -260t526 0t460 260t266 450t0 515t-265.5 449q-148 144 -336 218t-388 75t-388 -74t-336 -219q-196 -192 -265.5 -449t0 -515zM171.5 773q-59.5 221 0 443t229.5 388q126 122 287.5 187t333.5 65t333.5 -65t287.5 -187 q170 -166 229.5 -388t0 -443t-229 -386t-395.5 -224t-452 0t-395.5 224t-229 386zM609 922h826v138h-826v-138z" />
<glyph unicode="&#x202f;" horiz-adv-x="409" />
<glyph unicode="&#x205f;" horiz-adv-x="512" />
<glyph unicode="&#x25fc;" horiz-adv-x="2000" d="M0 0v2000h2000v-2000h-2000z" />
</font>
</defs>
</svg>
