<?xml version="1.0" standalone="no"?>
<!DOCTYPE svg PUBLIC "-//W3C//DTD SVG 1.1//EN" "http://www.w3.org/Graphics/SVG/1.1/DTD/svg11.dtd" >
<svg xmlns="http://www.w3.org/2000/svg">
<metadata>
<json>
<![CDATA[
{
	"fontFamily": "krautlightbox",
	"majorVersion": 1,
	"minorVersion": 0,
	"version": "Version 1.0",
	"fontId": "krautlightbox",
	"psName": "krautlightbox",
	"subFamily": "Regular",
	"fullName": "krautlightbox",
	"description": "Font generated by IcoMoon."
}
]]>
</json>
</metadata>
<defs>
<font id="krautlightbox" horiz-adv-x="1024">
<font-face units-per-em="1024" ascent="819" descent="-205" />
<missing-glyph horiz-adv-x="1024" />
<glyph unicode="&#x20;" horiz-adv-x="0" d="" />
<glyph unicode="&#xe900;" glyph-name="plus" data-tags="plus" d="M0 318.5q0-94.5 37.5-188t108.5-165.5q97-96 225.5-130t257.5 0 225 130 130 225 0 257.5-130 224.5q-72 72-164 109t-190 37.5-190-37-164-109.5-109-165.5-37-188zM70 318.5q0 81.5 32 162t94 142 141 94 163 32.5 163-32.5 141-93.5q83-83 112-194t0-221.5-112-193-193.5-112-221 0-193.5 111.5q-62 62-94 142.5t-32 162zM298 282h167v-168h70v168h167v69h-167v168h-70v-168h-167v-69z" />
<glyph unicode="&#xe901;" glyph-name="minus" data-tags="minus" d="M16 190q34-129 130.5-225t225-130 257.5 0 225 130 130 225 0 257.5-130 224.5q-72 72-164 109t-190 37.5-190-37-164-109.5q-96-96-130-224.5t0-257.5zM84 207.5q-29 110.5 0 221.5t112 194q62 61 141 93.5t163 32.5 163-32.5 141-93.5q83-83 112-194t0-221.5-112-193-193.5-112-221 0-193.5 112-112 193zM298 282h404v69h-404v-69z" />
<glyph unicode="&#xe902;" glyph-name="left" data-tags="left" d="M0 318.5q0-101.5 39.5-194t106.5-159.5 159.5-106.5 194.5-39.5 194.5 39.5 159.5 106.5 106.5 159.5 39.5 194-39.5 194-106.5 159.5-159.5 107-194.5 40-194.5-40-159.5-107-106.5-159.5-39.5-194zM70 319q0 116 57.5 215t156.5 157 216 58q88 0 167.5-34.5t137-92 91.5-137 34-166.5q0-117-57.5-216t-156.5-156.5-216-57.5q-87 0-167 34t-137.5 91.5-91.5 137-34 167.5zM327 319q0-16 12-27l200-200q11-11 25.5-11t25.5 11q7 7 9.5 16t0 18.5-9.5 15.5v1l-176 176 176 176q5 5 7.5 11.5t2.5 13.5-2.5 13.5-7.5 11.5q-11 11-26 11t-25-11l-198-198q-14-11-14-28z" />
<glyph unicode="&#xe903;" glyph-name="right" data-tags="right" d="M0 318.5q0 101.5 39.5 194t106.5 159.5 159.5 107 194.5 40 194.5-40 159.5-107 106.5-159.5 39.5-193.5q0-82-25-158.5t-71.5-138-108-107.5-138-71-157.5-25q-102 0-194.5 39.5t-159.5 106.5-106.5 159.5-39.5 194zM70 318.5q0-116.5 57.5-215.5t156.5-156.5 216-57.5 216 57.5 156.5 156.5 57.5 215.5-57.5 215.5-156.5 157-216 58-216-58-156.5-157-57.5-215.5zM400 520q0 7 2.5 13.5t7.5 11.5q11 11 26 11t25-11l198-198q14-11 14-28 0-16-12-27l-200-200q-11-11-25.5-11t-25.5 11q-7 7-9.5 16t0 18.5 9.5 15.5v1l176 176-176 176q-5 5-7.5 11.5t-2.5 13.5z" />
<glyph unicode="&#xe904;" glyph-name="up" data-tags="up" d="M513.5-192q-101.5 0-194 39.5t-159.5 106.5-107 159.5-40 194.5 40 194.5 107 159.5 159.5 106.5 193.5 39.5q82 0 158.5-25t138-71.5 107.5-108 71-138 25-157.5q0-102-39.5-194.5t-106.5-159.5-159.5-106.5-194-39.5zM513.5-122q116.5 0 215.5 57.5t156.5 156.5 57.5 216-57.5 216-156.5 156.5-215.5 57.5-215.5-57.5-157-156.5-58-216 58-216 157-156.5 215.5-57.5zM312 208q-7 0-13.5 2.5t-11.5 7.5q-11 11-11 26t11 25l198 198q11 14 28 14 16 0 27-12l200-200q11-11 11-25.5t-11-25.5q-7-7-16-9.5t-18.5 0-15.5 9.5h-1l-176 176-176-176q-5-5-11.5-7.5t-13.5-2.5z" />
<glyph unicode="&#xe905;" glyph-name="down" data-tags="down" d="M513.5 832q-101.5 0-194-39.5t-159.5-106.5-107-159.5-40-194.5 40-194.5 107-159.5 159.5-106.5 193.5-39.5q82 0 158.5 25t138 71.5 107.5 108 71 138 25 157.5q0 102-39.5 194.5t-106.5 159.5-159.5 106.5-194 39.5zM513.5 762q116.5 0 215.5-57.5t156.5-156.5 57.5-216-57.5-216-156.5-156.5-215.5-57.5-215.5 57.5-157 156.5-58 216 58 216 157 156.5 215.5 57.5zM312 432q-7 0-13.5-2.5t-11.5-7.5q-11-11-11-26t11-25l198-198q11-14 28-14 16 0 27 12l200 200q11 11 11 25.5t-11 25.5q-7 7-16 9.5t-18.5 0-15.5-9.5h-1l-176-176-176 176q-5 5-11.5 7.5t-13.5 2.5z" />
<glyph unicode="&#xe906;" glyph-name="play" data-tags="play" d="M0 318.5q0-94.5 37.5-188t108.5-165.5q97-96 225.5-130 64.5-17 128.75-17t128.75 17q129 34 225 130 71 72 108.5 165.5t37.5 188-37.5 188-108.5 165.5q-131 130-314 145-20 1-40 1h-5q-95.5 0-185-36.5-92-37.5-164-109.5t-109-165.5-37-188zM84 207.5q-14.5 55.5-14.5 110.75t14.5 110.75q29 111 112 194 41 41 91.5 69.5t103.5 42 109 13.5q84 0 163-32t141-93.5 94-142 32-162-32-162-94-142.5q-83-82-193.5-111.5-55.5-14.5-110.5-14.5l-110.5 14.5q-110.5 29.5-193.5 112t-112 193zM356 161l366 154-366 158v-312z" />
<glyph unicode="&#xe907;" glyph-name="stop" data-tags="stop" d="M16 189.5q34-128.5 130.5-224.5t225-130q64-17 128.5-17t129 17q129 34 225 130 71 72 108.5 165.5t37.5 188-37.5 188-108.5 165.5q-21 21-44 39t-47 33-49.5 27-51.5 21-53 15-54.5 8.5-54.5 3.5q-98 0-190-37.5t-164-109.5q-96-96-130-225-17-64.5-17-129t17-128.5zM70 318.5q0 81.5 32 162t94 142 141 94 163 32.5 163-32.5 141-93.5q83-83 112-193.5 14.5-55 14.5-110.5t-14.5-111q-29-111-112-193.5t-193.5-112q-55-15-110.5-14.5l-110.5 14.5q-110.5 29.5-193.5 111.5-62 62-94 142.5t-32 162zM332 151h336v336h-336v-336z" />
<glyph unicode="&#xe908;" glyph-name="pause" data-tags="pause" d="M974.336 515.277c-25.293 59.699-61.44 113.459-107.52 159.539s-99.738 82.227-159.539 107.52c-61.85 26.112-127.59 39.424-195.277 39.424s-133.427-13.312-195.277-39.424c-59.699-25.293-113.459-61.44-159.539-107.52s-82.227-99.738-107.52-159.539c-26.112-61.85-39.424-127.59-39.424-195.277s13.312-133.427 39.424-195.277c25.293-59.699 61.44-113.459 107.52-159.539s99.738-82.227 159.539-107.52c61.85-26.112 127.59-39.424 195.277-39.424s133.427 13.312 195.277 39.424c59.699 25.293 113.459 61.44 159.539 107.52s82.227 99.738 107.52 159.539c26.112 61.85 39.424 127.59 39.424 195.277s-13.312 133.427-39.424 195.277zM907.366 152.986c-21.606-51.098-52.531-96.973-91.955-136.397s-85.299-70.349-136.397-91.955c-52.941-22.323-109.056-33.69-167.014-33.69s-114.074 11.366-167.014 33.69c-51.098 21.606-96.973 52.531-136.397 91.955s-70.349 85.299-91.955 136.397c-22.323 52.941-33.69 109.056-33.69 167.014s11.366 114.074 33.69 167.014c21.606 51.098 52.531 96.973 91.955 136.397s85.299 70.349 136.397 91.955c52.941 22.323 109.056 33.69 167.014 33.69s114.074-11.366 167.014-33.69c51.098-21.606 96.973-52.531 136.397-91.955s70.349-85.299 91.955-136.397c22.323-52.941 33.69-109.056 33.69-167.014s-11.366-114.074-33.69-167.014zM404.582 534.835c-19.763 0-35.84-16.077-35.84-35.84v-357.99c0-19.763 16.077-35.84 35.84-35.84s35.84 16.077 35.84 35.84v357.99c0 19.763-16.077 35.84-35.84 35.84zM619.418 534.835c-19.763 0-35.84-16.077-35.84-35.84v-357.99c0-19.763 16.077-35.84 35.84-35.84s35.84 16.077 35.84 35.84v357.99c-0.102 19.763-16.077 35.84-35.84 35.84z" />
<glyph unicode="&#xe909;" glyph-name="expand" data-tags="expand" d="M16 189.5q34-128.5 130.5-224.5t225-130q64.5-17 128.75-17t128.75 17q129 34 225 130t130 225q17 64.5 17 128.75t-17 128.75q-34 128.5-130 224.5-72 72-164 109t-190 37.5h-2.5q-96.5 0-187.5-37-92-37.5-164-109.5-96-96-130-225-17-64.5-17-128.75t17-128.75zM84 207.5q-14.5 55.5-14.5 110.75t14.5 110.75q29 111 112 194 62 61 141 93.5t163 32.5 163-32.5 141-93.5q83-83 112-193.5 14.5-55.5 14.5-110.75t-14.5-110.75q-29-111-112-193.5t-193.5-112q-55.5-14.5-110.5-14.5l-110.5 14.5q-110.5 29.5-193.5 112t-112 193zM280 99h241l-92 91 200 200 91-90v238h-243l99-98-200-200-96 95v-236z" />
<glyph unicode="&#xe90a;" glyph-name="contract" data-tags="contract" d="M0 318.5q0-94.5 37.5-188t109-165.5 165-109.5 188.5-37.5 188.5 37.5 165.5 109.5q57 58 93 129.5t47 148q5.5 38 5.5 76.25t-5.5 76.25q-11 76-47 147.5t-93 129.5q-72 72-164 109t-190 38q-65 0-127-16.5t-120.5-49.5-106.5-81q-72-72-109-165.5t-37-188zM84 207.5q-14.5 55-14.5 110.5t14.5 111q29 111 112 194 41 41 91.5 69.5t103.5 42.5 109 14q84 0 163-32.5t141-93.5q83-83 112-193.5 14.5-55 14.5-110.5t-14.5-111q-29-111-112-193.5t-193.5-112q-55-15-110.5-14.5l-110.5 14.5q-110.5 29.5-193.5 112t-112 193zM231 299l98-98-90-91 51-51 93 92 90-90v238h-242zM520 346h240l-91 91 91 92-51 51-94-93-95 95v-236z" />
<glyph unicode="&#xe90b;" glyph-name="share" data-tags="share" d="M0 318.5q0-207.5 146-353.5 97-96 225.5-130 64-17 128.5-17t129 17q129 34 225 130t130 225q17 64.5 17 128.75t-17 128.75q-34 128.5-130 224.5-131 130-314 145l-40 2q-65 0-127-16.5t-120.5-49.5-106.5-81q-146-146-146-353.5zM84 207.5q-14.5 55-14.5 110.5t14.5 111q29 111 112 194 21 20 44 38t47.5 31.5 50.5 24.5 53 17.5 54 10 55 3.5q84 0 163-32t141-93q83-83 112-194 14.5-55.5 14.5-110.75t-14.5-110.75q-29-110.5-112-193t-193.5-112q-55-15-110.5-14.5l-110.5 14.5q-110.5 29.5-193.5 112t-112 193zM252 318q0-22 11-41.5t30-30.5 42-11q37 0 61 26l98-56q-5-13-5-27 0-17 6.5-32.5t18-27 27-18 32.5-6.5q34 0 58.5 24.5t24.5 59.5q0 13-4 26t-12 23-18 18-23 12-26 4q-19 0-35-7.5t-28-20.5l-97 56q3 7 4.5 14.5t1.5 14.5q0 16-6 30l99 58q6-6 12.5-11t14.5-8.5 16.5-5 17.5-1.5q22 0 41.5 11t30.5 30 11 42q0 35-24.5 59.5t-59 24.5-59-24.5-24.5-59.5q0-15 6-30l-99-57q-25 26-61 26-35 0-59-24.5t-24-59.5z" />
<glyph unicode="&#xe90c;" glyph-name="information" data-tags="information" d="M16 190q34-129 130-225t225-130q64.5-17 129-17l129 17q129 34 225 130t130 225q17 64.5 17 128.75t-17 128.75q-34 128.5-130 224.5-72 72-164 109t-190 37.5h-2.5q-96.5 0-187.5-37-92-37.5-164-109.5-96-96-130-224.5-17-64-17-128.5t17-129zM70 318.5q0 81.5 32 162t94 142 141 94 163 32.5 163-32.5 141-93.5q83-83 112-194 14.5-55.5 14.5-110.75t-14.5-110.75q-29-110.5-112-193.5-126-126-304-126t-304 126q-62 62-94 142.5t-32 162zM405 86h189v62h-63v266h-125v-62h62v-204h-63v-62zM446 523q0-15 7-27t19-19 26-7 26 7 19 19 7 26.5-7 26.5-19 19-26 7q-22 0-37-15.5t-15-36.5z" />
<glyph unicode="&#xe90d;" glyph-name="close" data-tags="close" d="M16 189.5q34-128.5 130.5-224.5t225-130q64-17 128.5-17l128.5 17q128.5 34 225 130t130.5 224.5q17 64 17 128.5t-17 129q-34 129-130 225t-225 130q-64.5 17-129 17l-129-17q-129-34-225-130t-130-225q-17-64.5-17-129t17-128.5zM84 207.5q-14.5 55-14.5 110.5t14.5 111q29 111 112 193.5t193.5 112q55 14.5 110.5 14.5l110.5-14.5q110.5-29.5 193.5-112.5 62-61 94-141.5t32-162-32-162-94-142.5q-83-82-193.5-111.5-55-15-110.5-14.75t-111 14.75q-111 29.5-193.5 112t-111.5 193zM312 471.5q0-14.5 10-24.5h1l127-127-128-127-2-3h1q-6-6-8-15t0.5-17 8.5-15q10-9 23.5-9.5h1.5q12.5 0 22 7.5h1l2 2 127 128 129-130h1q9.5-7.5 22-7.5h1.5q13.5 0.5 23 10t10 23-7.5 23.5l-2 3-128 127 127 127h1q10 10 10 24.5t-10.5 25-24.5 10.5-25-11l-127-127-127 127q-11.5 11.5-24 11.5-8.5 0-18-5.5-5-3-8-6-10-10-10-24.5z" />
<glyph unicode="&#xe90e;" glyph-name="download" data-tags="download" d="M33.109 318.421c0 264.107 214.144 478.251 478.293 478.251 264.064 0 478.123-214.187 478.123-478.251 0-264.192-214.059-478.251-478.123-478.251-264.149 0-478.293 214.059-478.293 478.251zM914.773 318.421c0 222.72-180.48 403.371-403.371 403.371-222.805 0-403.371-180.651-403.371-403.371 0-222.763 180.565-403.371 403.371-403.371 222.891 0 403.371 180.608 403.371 403.371zM639.787 324.181l-157.184-157.141c-7.765-7.68-11.861-17.835-11.861-28.843 0-10.795 4.096-20.907 11.861-28.629 15.787-15.957 41.6-15.872 57.472 0l157.184 157.056c7.68 7.765 11.904 17.92 11.904 28.757-0.043 10.88-4.267 21.163-11.904 28.8-15.872 15.701-41.557 15.915-57.472 0zM325.376 266.581l157.227-157.056c7.595-7.723 17.835-11.904 28.715-12.032 10.88 0.128 21.12 4.267 28.757 12.032 15.872 15.787 15.829 41.643 0 57.472l-157.184 157.141c-7.765 7.68-17.92 11.947-28.757 11.947-10.795 0-21.035-4.309-28.757-11.947-15.787-15.787-15.829-41.6 0-57.557zM470.741 495.957v-265.899c0-10.88 4.224-21.077 11.904-28.757 7.723-7.723 17.835-11.989 28.715-11.861 22.443-0.128 40.619 18.176 40.619 40.619l0.043 265.899c0.085 10.837-4.139 21.077-11.861 28.757-7.723 7.595-17.92 11.904-28.8 11.947-22.4-0.043-40.619-18.261-40.619-40.704z" />
<glyph unicode="&#xe90f;" glyph-name="upload" data-tags="upload" d="M33.109 321.579c0-264.107 214.144-478.251 478.293-478.251 264.064 0 478.123 214.187 478.123 478.251 0 264.192-214.059 478.251-478.123 478.251-264.149 0-478.293-214.059-478.293-478.251zM914.773 321.579c0-222.72-180.48-403.371-403.371-403.371-222.805 0-403.371 180.651-403.371 403.371 0 222.763 180.565 403.371 403.371 403.371 222.891 0 403.371-180.608 403.371-403.371zM639.787 315.819l-157.184 157.141c-7.765 7.68-11.861 17.835-11.861 28.843 0 10.795 4.096 20.907 11.861 28.629 15.787 15.957 41.6 15.872 57.472 0l157.184-157.056c7.68-7.765 11.904-17.92 11.904-28.757-0.043-10.88-4.267-21.163-11.904-28.8-15.872-15.701-41.557-15.915-57.472 0zM325.376 373.419l157.227 157.056c7.595 7.723 17.835 11.904 28.715 12.032 10.88-0.128 21.12-4.267 28.757-12.032 15.872-15.787 15.829-41.643 0-57.472l-157.184-157.141c-7.765-7.68-17.92-11.947-28.757-11.947-10.795 0-21.035 4.309-28.757 11.947-15.787 15.787-15.829 41.6 0 57.557zM470.741 144.043v265.899c0 10.88 4.224 21.077 11.904 28.757 7.723 7.723 17.835 11.989 28.715 11.861 22.443 0.128 40.619-18.176 40.619-40.619l0.043-265.899c0.085-10.837-4.139-21.077-11.861-28.757-7.723-7.595-17.92-11.904-28.8-11.947-22.4 0.043-40.619 18.261-40.619 40.704z" />
<glyph unicode="&#xe910;" glyph-name="blank" data-tags="blank" d="M0 318q0-101 39.5-193.5t106.5-159.5 159.5-106.5 194.5-39.5 194.5 39.5 159.5 106.5 106.5 159.5 39.5 194-39.5 194-106.5 159.5-159.5 107-194.5 40q-81 0-157.5-25.5t-138-71.5-108-107.5-71.5-138-25-158.5zM70 318q0 88 34 167.5t91.5 137 137.5 92 167 34.5q117 0 216-58t156.5-157 57.5-216q0-164-110-287-107-119-265-139l-55-4q-117 0-216 58t-156.5 157-57.5 215z" />
<glyph unicode="&#xe911;" glyph-name="thumbs_on" data-tags="thumbs_on" d="M13.017 320.154q0-100.992 39.488-193.504t106.496-159.488 159.488-106.496 194.496-39.488 194.496 39.488 159.488 106.496 106.496 159.488 39.488 194.016-39.488 194.016-106.496 159.488-159.488 107.008-194.496 40q-80.992 0-157.504-25.504t-138.016-71.488-108-107.488-71.488-138.016-24.992-158.496zM83.033 320.154q0 88 34.016 167.488t91.488 136.992 137.504 92 167.008 34.496q116.992 0 216-58.016t156.512-156.992 57.504-216q0-164-110.016-287.008-107.008-119.008-264.992-139.008l-55.008-4q-116.992 0-216 58.016t-156.512 156.992-57.504 215.008zM192.721 447.323v-256.391h156.732v256.391h-156.732zM434.699 446.651v-256.391h153.664v256.391h-153.664zM676.22 446.651v-256.391h153.664v256.391h-153.664z" />
<glyph unicode="&#xe912;" glyph-name="thumbs_on2" data-tags="thumbs_on" d="M512.154 818.983q-100.992 0-193.504-39.488t-159.488-106.496-106.496-159.488-39.488-194.496 39.488-194.496 106.496-159.488 159.488-106.496 194.016-39.488 194.016 39.488 159.488 106.496 107.008 159.488 40 194.496q0 80.992-25.504 157.504t-71.488 138.016-107.488 108-138.016 71.488-158.496 24.992zM512.154 748.967q88 0 167.488-34.016t136.992-91.488 92-137.504 34.496-167.008q0-116.992-58.016-216t-156.992-156.512-216-57.504q-164 0-287.008 110.016-119.008 107.008-139.008 264.992l-4 55.008q0 116.992 58.016 216t156.992 156.512 215.008 57.504zM639.323 639.279h-256.391v-156.732h256.391v156.732zM638.651 397.301h-256.391v-153.664h256.391v153.664zM638.651 155.78h-256.391v-153.664h256.391v153.664z" />
<glyph unicode="&#xe913;" glyph-name="thumbs_off" data-tags="thumbs_off" d="M13.017 320.154q0-100.992 39.488-193.504t106.496-159.488 159.488-106.496 194.496-39.488 194.496 39.488 159.488 106.496 106.496 159.488 39.488 194.016-39.488 194.016-106.496 159.488-159.488 107.008-194.496 40q-80.992 0-157.504-25.504t-138.016-71.488-108-107.488-71.488-138.016-24.992-158.496zM83.033 320.154q0 88 34.016 167.488t91.488 136.992 137.504 92 167.008 34.496q116.992 0 216-58.016t156.512-156.992 57.504-216q0-164-110.016-287.008-107.008-119.008-264.992-139.008l-55.008-4q-116.992 0-216 58.016t-156.512 156.992-57.504 215.008zM192.721 447.323v-256.391h156.732v256.391h-156.732zM434.699 446.651v-256.391h153.664v256.391h-153.664zM676.22 446.651v-256.391h153.664v256.391h-153.664zM190.562 702.562l-61.125-61.125 704-704 61.125 61.125-704 704z" />
<glyph unicode="&#xe914;" glyph-name="thumbs_off2" data-tags="thumbs_off" d="M512.154-178.983q-100.992 0-193.504 39.488t-159.488 106.496-106.496 159.488-39.488 194.496 39.488 194.496 106.496 159.488 159.488 106.496 194.016 39.488 194.016-39.488 159.488-106.496 107.008-159.488 40-194.496q0-80.992-25.504-157.504t-71.488-138.016-107.488-108-138.016-71.488-158.496-24.992zM512.154-108.967q88 0 167.488 34.016t136.992 91.488 92 137.504 34.496 167.008q0 116.992-58.016 216t-156.992 156.512-216 57.504q-164 0-287.008-110.016-119.008-107.008-139.008-264.992l-4-55.008q0-116.992 58.016-216t156.992-156.512 215.008-57.504zM639.323 0.721h-256.391v156.732h256.391v-156.732zM638.651 242.699h-256.391v153.664h256.391v-153.664zM638.651 484.22h-256.391v153.664h256.391v-153.664zM894.562-1.438l-61.125-61.125-704 704 61.125 61.125 704-704z" />
</font>
</defs>
</svg>
