<?xml version="1.0" standalone="no"?>
<!DOCTYPE svg PUBLIC "-//W3C//DTD SVG 1.1//EN" "http://www.w3.org/Graphics/SVG/1.1/DTD/svg11.dtd" >
<svg xmlns="http://www.w3.org/2000/svg">
<metadata>
This is a custom SVG webfont generated by Font Squirrel.
Copyright   : Copyright 2011 Canonical Ltd  Licensed under the Ubuntu Font Licence 10
Designer    : Dalton Maag Ltd
Foundry     : Dalton Maag Ltd
Foundry URL : httpwwwdaltonmaagcom
</metadata>
<defs>
<font id="UbuntuLightItalic" horiz-adv-x="1155" >
<font-face units-per-em="2048" ascent="1638" descent="-410" />
<missing-glyph horiz-adv-x="475" />
<glyph unicode=" "  horiz-adv-x="475" />
<glyph unicode="&#x09;" horiz-adv-x="475" />
<glyph unicode="&#xa0;" horiz-adv-x="475" />
<glyph unicode="!" horiz-adv-x="462" d="M150 74q0 45 30.5 85t85.5 40q53 0 78 -30t25 -69q0 -45 -31 -85t-86 -40q-53 0 -77.5 30t-24.5 69zM301 436q16 135 38.5 274.5t63.5 313.5l95 395h143l-94 -397q-8 -35 -29 -111l-46 -163l-51 -175q-26 -86 -46 -137h-74z" />
<glyph unicode="&#x22;" horiz-adv-x="729" d="M406 1061q8 104 22 209.5t41 210.5l18 75h144l-19 -77q-27 -102 -61.5 -211t-77.5 -207h-67zM713 1061q8 104 22.5 209.5t40.5 210.5l19 75h143l-18 -77q-27 -102 -62 -211t-78 -207h-67z" />
<glyph unicode="#" horiz-adv-x="1275" d="M180 387l27 111h203l182 422h-285l27 110h305l168 389h127l-168 -389h354l168 389h127l-168 -389h176l-28 -110h-195l-180 -422h276l-28 -111h-295l-166 -387h-127l166 387h-359l-165 -387h-127l165 387h-180zM537 498h356l180 422h-356z" />
<glyph unicode="$" d="M201 137l65 111q16 -10 43 -24.5t66 -29t88 -23.5t108 -9q68 0 135.5 14t120 46t85 84t32.5 126q0 68 -36 110t-90 72.5t-117.5 57t-118 65.5t-90 96.5t-35.5 151.5q0 154 100 246t283 117l57 241h123l-55 -231q94 -4 165.5 -31t106.5 -49l-66 -113q-25 16 -88 42 t-174 26q-68 0 -126 -13.5t-103 -41t-70.5 -71.5t-25.5 -103q0 -70 36.5 -113t91 -75t118 -59.5t117.5 -65.5t91 -96t37 -149q0 -86 -30.5 -154.5t-87 -118.5t-135.5 -82t-173 -42l-65 -272h-121l65 274h-17q-39 0 -80 7q-50 9 -96 22.5t-82 29t-52 27.5z" />
<glyph unicode="%" horiz-adv-x="1607" d="M324 983q0 72 23.5 154t70.5 150.5t118.5 114.5t170.5 46q117 0 177 -68.5t60 -197.5q0 -72 -23.5 -154t-70.5 -151.5t-120 -115.5t-171 -46q-117 0 -176 69.5t-59 198.5zM330 0l1122 1419h143l-1122 -1419h-143zM438 999q0 -37 4 -69.5t16.5 -57t37 -39t67.5 -14.5 q74 0 124 39t82 93.5t46 112.5t14 99q0 39 -4 72t-18 57.5t-39 37.5t-68 13q-74 0 -124 -38.5t-80.5 -93t-44 -114t-13.5 -98.5zM991 238q0 72 23.5 153.5t71 150t119 114.5t169.5 46q117 0 177.5 -68.5t60.5 -197.5q0 -72 -23.5 -153.5t-71 -151.5t-120 -116t-170.5 -46 q-117 0 -176.5 70t-59.5 199zM1106 254q0 -37 4 -69.5t16.5 -57.5t37 -39t67.5 -14q74 0 124 39t81.5 93t46 112.5t14.5 99.5q0 39 -4 71.5t-18.5 57t-39 38t-67.5 13.5q-74 0 -124 -39t-80.5 -93t-44 -113.5t-13.5 -98.5z" />
<glyph unicode="&#x26;" horiz-adv-x="1298" d="M201 322q0 66 19.5 126t65.5 117.5t122.5 109.5t189.5 101q-47 72 -69.5 144.5t-22.5 142.5q0 80 28.5 150.5t81 123t127 83t166.5 30.5q61 0 111.5 -20.5t87.5 -55.5t56.5 -83t19.5 -103q0 -53 -15.5 -107.5t-57.5 -109t-116.5 -109.5t-193.5 -112l-19 -11l269 -368 q47 59 90 131.5t80 161.5l122 -15q-41 -111 -98 -204t-123 -171q45 -66 83 -130t71 -144h-139q-16 47 -43 92t-60 92q-106 -98 -228 -150t-251 -52q-86 0 -151.5 27.5t-110.5 73.5t-68.5 107.5t-23.5 131.5zM336 338q0 -41 11 -82t37 -75t70 -55.5t111 -21.5q98 0 200.5 43 t199.5 132l-301 407l-114 -57q-58 -31 -106.5 -72t-78 -94t-29.5 -125zM635 1079q0 -64 21.5 -130t62.5 -124q109 47 175.5 92.5t102 89.5t48 87t12.5 84q0 78 -47 117.5t-113 39.5q-68 0 -117 -20.5t-81.5 -55t-48 -82t-15.5 -98.5z" />
<glyph unicode="'" horiz-adv-x="421" d="M406 1061q8 105 22 210t41 210l18 75h144l-19 -77q-27 -102 -61.5 -211t-77.5 -207h-67z" />
<glyph unicode="(" horiz-adv-x="618" d="M262 262q0 182 40 364.5t119 355.5t193.5 330.5t264.5 291.5l92 -68q-141 -127 -250 -276.5t-182.5 -312.5t-111.5 -334t-38 -341q0 -147 26.5 -295.5t82.5 -285.5l-103 -58q-66 156 -99.5 310.5t-33.5 318.5z" />
<glyph unicode=")" horiz-adv-x="618" d="M-45 -313q141 127 249.5 273t182.5 307t112 332t38 345q0 150 -28 303.5t-87 294.5l106 53q68 -158 102 -312.5t34 -319.5q0 -184 -40 -366.5t-119 -355.5t-193.5 -331t-264.5 -291z" />
<glyph unicode="*" horiz-adv-x="880" d="M272 1079l45 131q94 -31 165 -64l159 -79q-8 49 -14 91l-11.5 83t-8.5 84t-3 94h144q0 -51 -3.5 -94t-8.5 -84t-11 -83t-14 -91l158 79q71 34 165 64l45 -131q-96 -39 -176 -51t-180 -20l72 -66q33 -31 62.5 -61.5t58 -64.5t57.5 -77l-117 -80q-29 43 -51 82l-44 76 l-42 75l-43 83l-45 -83l-42 -75l-45 -76l-50 -82l-115 80q29 43 57 77l58 65q29 31 61 61l72 66q-49 4 -93.5 9t-86 12t-85 19.5t-90.5 30.5z" />
<glyph unicode="+" d="M262 535l29 114h389l108 445h121l-108 -445h389l-29 -114h-387l-108 -447h-119l106 447h-391z" />
<glyph unicode="," horiz-adv-x="487" d="M27 -272q41 51 75.5 114.5t60 128t41 123t21.5 101.5h144q-12 -68 -38 -139.5t-62 -139.5t-76.5 -129t-83.5 -109z" />
<glyph unicode="-" horiz-adv-x="571" d="M162 528l31 129h466l-30 -129h-467z" />
<glyph unicode="." horiz-adv-x="497" d="M160 72q0 45 30.5 85t85.5 40q53 0 78 -30t25 -69q0 -45 -31 -85t-86 -40q-53 0 -77.5 30t-24.5 69z" />
<glyph unicode="/" horiz-adv-x="774" d="M-127 -379l1143 1983h131l-1145 -1983h-129z" />
<glyph unicode="0" d="M246 397q0 121 20.5 246t59.5 241.5t96 220t128 180.5t156 122t181 45q172 -2 244.5 -118.5t72.5 -309.5q0 -180 -46 -367.5t-130 -340t-201.5 -250t-261.5 -97.5q-86 0 -147.5 31t-99 87t-55 135t-17.5 175zM385 416q0 -170 48 -247t142 -77q100 0 189.5 80t156 210 t105.5 294t39 330q0 170 -48 246.5t-143 76.5q-100 0 -189 -80t-155.5 -210t-105.5 -293.5t-39 -329.5z" />
<glyph unicode="1" d="M526 1126q119 43 238 111t235 182h99l-340 -1419h-131l291 1212q-66 -66 -164.5 -119t-202.5 -85z" />
<glyph unicode="2" d="M207 0q25 154 97.5 266.5t166.5 198.5t197.5 157.5t189.5 143.5t142.5 153.5t56.5 192.5q0 115 -62.5 166t-150.5 51q-86 0 -176 -36t-156 -91l-45 111q78 63 185.5 100t211.5 37q68 0 128.5 -18.5t106.5 -57.5t73.5 -100.5t27.5 -145.5q0 -96 -36 -175t-92 -146.5 t-128 -125.5l-145 -112l-164 -124q-74 -56 -128 -109t-89 -106.5t-49 -112.5h657l-27 -117h-792z" />
<glyph unicode="3" d="M160 45l53 115q57 -35 132 -51.5t155 -16.5q88 0 163.5 21.5t132 64.5t89 109.5t32.5 156.5q0 137 -97 197.5t-261 60.5l29 111h51q98 0 170 30.5t118 78t67.5 104.5t21.5 113q0 51 -16.5 88t-45 58.5t-66.5 31.5t-81 10q-72 0 -144.5 -22.5t-125.5 -57.5l-29 107 q72 45 153.5 70.5t169.5 25.5q63 0 123 -16.5t105 -52t72.5 -92t27.5 -138.5q0 -61 -18.5 -120.5t-56 -112t-95 -94.5t-133.5 -68q37 -14 73 -39t65.5 -62t48 -88t18.5 -118q0 -121 -48 -211.5t-126 -149.5t-179.5 -89t-207.5 -30q-90 0 -177 18.5t-163 57.5z" />
<glyph unicode="4" d="M195 385l20 80q63 111 156.5 235.5t205 250.5t236.5 247t254 221h133l-221 -923h174l-27 -111h-172l-90 -385h-131l90 385h-628zM369 496h479l180 747q-84 -68 -174 -153.5t-177 -183t-167 -202t-141 -208.5z" />
<glyph unicode="5" d="M164 43l55 121q59 -35 130 -53.5t143 -18.5q82 0 159.5 22.5t138 66.5t97.5 111.5t37 158.5q0 76 -28 127t-71 85.5t-98 53t-108.5 29t-101.5 12.5t-79 4l60 172l51 157l48 156q24 80 46 172h619l-27 -116h-500l-32 -105l-35 -117q-18 -59 -38 -115l-34 -100 q104 -10 191 -37.5t149.5 -77t96.5 -120t34 -164.5q0 -125 -47 -218t-125 -155.5t-181.5 -93.5t-213.5 -31q-86 0 -171 17.5t-165 56.5z" />
<glyph unicode="6" d="M256 391q0 209 70.5 395.5t199.5 326.5t313.5 224t411.5 88l-14 -120q-150 -4 -273.5 -46t-221 -114t-169 -170t-114.5 -211q78 39 160.5 61.5t168.5 22.5q92 0 159 -25.5t110 -70.5t63.5 -106.5t20.5 -135.5q0 -129 -44 -229.5t-116 -170t-163 -105.5t-185 -36 q-78 0 -146.5 27t-120 79t-81 131t-29.5 185zM393 391q0 -80 18.5 -138t51.5 -95t76 -54.5t90 -17.5q76 0 142.5 28.5t116.5 81t79.5 126t29.5 163.5q0 111 -57 175.5t-192 64.5q-84 0 -170 -24.5t-156 -59.5q-16 -59 -22.5 -123t-6.5 -127z" />
<glyph unicode="7" d="M352 0q35 113 88.5 236.5t120 247.5t142 244t155.5 226.5t160 194.5t153 147h-698l27 123h839l-28 -119q-92 -88 -210 -230t-233.5 -317t-216 -369t-157.5 -384h-142z" />
<glyph unicode="8" d="M203 272q0 59 15 122t55 124.5t109 119.5t173 107q-63 39 -105 104.5t-42 151.5q0 106 40.5 190.5t108.5 142t156 87t180 29.5q150 0 244 -75t94 -226q0 -59 -15.5 -119.5t-53.5 -118t-100.5 -110.5t-156.5 -99q96 -53 143.5 -126.5t47.5 -159.5q0 -106 -44 -189.5 t-118 -140.5t-170 -87t-203 -30q-72 0 -136.5 18.5t-113.5 55.5t-78.5 94t-29.5 135zM344 307q0 -59 18.5 -101t51 -68.5t75.5 -40t91 -13.5q72 0 139 22.5t119.5 63.5t84 100.5t31.5 130.5q0 63 -26.5 108.5t-69.5 78.5t-96 57.5t-109 46.5q-84 -43 -143 -92t-96 -99 t-53.5 -100.5t-16.5 -93.5zM547 1008q0 -53 22.5 -92t59.5 -69t83 -51.5t95 -39.5q147 78 216 173t69 202q0 102 -56.5 153t-161.5 51q-66 0 -124 -20.5t-104 -62.5t-72.5 -103t-26.5 -141z" />
<glyph unicode="9" d="M180 -2l25 117q15 0 29 -1q139 0 255 36q129 39 229.5 110.5t172.5 173t115 221.5q-96 -45 -180.5 -64.5t-131.5 -19.5q-96 0 -164.5 26t-112.5 70t-64.5 103t-20.5 127q0 133 43 235.5t114.5 173t163.5 107.5t191 37q72 0 137.5 -21.5t116.5 -69.5t80.5 -127t29.5 -194 q0 -215 -68.5 -405.5t-195.5 -331.5t-307 -223t-404 -82h-24q-15 0 -29 2zM475 920q0 -92 56.5 -159t185.5 -67q68 0 148.5 18.5t174.5 63.5q31 125 31 266q0 143 -58.5 217t-168.5 74q-74 0 -141.5 -26.5t-117.5 -78.5t-80 -130t-30 -178z" />
<glyph unicode=":" horiz-adv-x="497" d="M160 72q0 45 30.5 85t85.5 40q53 0 78 -30t25 -69q0 -45 -31 -85t-86 -40q-53 0 -77.5 30t-24.5 69zM375 934q0 45 30.5 85t86.5 40q53 0 77.5 -30t24.5 -68q0 -45 -31 -85t-86 -40q-53 0 -77.5 29.5t-24.5 68.5z" />
<glyph unicode=";" horiz-adv-x="487" d="M27 -272q41 51 75.5 114.5t60 128t41 123t21.5 101.5h144q-12 -68 -38 -139.5t-62 -139.5t-76.5 -129t-83.5 -109zM375 934q0 45 30.5 85t86.5 40q53 0 77.5 -30t24.5 -68q0 -45 -31 -85t-86 -40q-53 0 -77.5 29.5t-24.5 68.5z" />
<glyph unicode="&#x3c;" d="M244 553l28 119l934 362l11 -125l-814 -307l658 -303l-66 -111z" />
<glyph unicode="=" d="M213 340l29 115h897l-27 -115h-899zM315 770l29 115h897l-27 -115h-899z" />
<glyph unicode="&#x3e;" d="M221 313l813 308l-657 303l65 110l752 -364l-29 -119l-934 -363z" />
<glyph unicode="?" horiz-adv-x="747" d="M242 74q0 45 30.5 85t85.5 40q53 0 78 -30t25 -69q0 -45 -31 -85t-86 -40q-53 0 -77.5 30t-24.5 69zM326 436q2 74 22.5 133.5t55 109.5t80.5 94t102 87l24 19q113 84 158 149.5t45 145.5q0 88 -55.5 122.5t-130.5 34.5q-66 0 -132.5 -18.5t-115.5 -40.5l-17 112 q61 29 137 47.5t152 18.5q61 0 116.5 -14.5t97.5 -46t66.5 -84t24.5 -127.5q0 -86 -37.5 -151.5t-96 -122t-125 -108t-125 -105.5t-96.5 -115.5t-38 -139.5h-112z" />
<glyph unicode="@" horiz-adv-x="1900" d="M242 363q0 264 85 466.5t228 341t331.5 209t397.5 70.5q147 0 269 -40t209 -122t135.5 -204.5t48.5 -290.5q0 -182 -49.5 -309.5t-125 -209t-167 -118.5t-172.5 -37q-57 0 -100.5 19.5t-59.5 56.5q-47 -33 -116 -56.5t-136 -23.5q-74 0 -135.5 19.5t-105.5 60.5 t-69.5 103t-25.5 146q0 129 41 238t114.5 186.5t177 121.5t230.5 44q98 0 176 -16.5t113 -30.5l-154 -622l-9 -35t-5 -37q0 -20 12.5 -40t73.5 -20q98 0 168 56.5t113 141.5t62.5 186.5t19.5 191.5q0 131 -39 230.5t-112 164t-175 97t-229 32.5q-168 0 -327 -62.5t-283 -183 t-199.5 -298t-75.5 -408.5q0 -279 150.5 -428.5t424.5 -149.5q131 0 289 37l-10 -112q-158 -41 -295 -41q-152 0 -280 45t-220 131t-143 212t-51 288zM825 457q0 -121 53.5 -175.5t145.5 -54.5q90 0 138 18.5t83 37.5q0 43 5 69l10 47l124 508q-2 2 -16 5t-35.5 5.5t-47 4.5 t-50.5 2q-90 0 -165 -35t-129 -97.5t-85 -148.5t-31 -186z" />
<glyph unicode="A" horiz-adv-x="1273" d="M41 0q211 381 434 741l438 678h150q51 -299 101 -646t98 -773h-144q-10 98 -21 195l-24 194h-667l-107 -190l-106 -199h-152zM475 508h584q-23 184 -49 370l-58 382l-243 -375z" />
<glyph unicode="B" horiz-adv-x="1222" d="M170 27l328 1366q66 16 155.5 28.5t186.5 12.5q88 0 172 -14.5t150.5 -51.5t106.5 -99.5t40 -156.5q0 -70 -24.5 -129t-64.5 -105.5t-93.5 -80t-110.5 -52.5q47 -12 85 -38.5t63.5 -62.5t40 -80t14.5 -89q0 -145 -59.5 -239.5t-156 -149.5t-220.5 -76.5t-255 -21.5 q-98 0 -189 11.5t-169 27.5zM330 121q43 -8 94 -11.5t108 -3.5q100 0 197.5 14.5t173.5 54.5t122 109.5t46 182.5q0 121 -82 167t-268 46h-260zM492 799h190q258 0 369.5 78.5t111.5 209.5q0 123 -87 174.5t-265 51.5q-55 0 -106.5 -4t-90.5 -11z" />
<glyph unicode="C" horiz-adv-x="1249" d="M283 518q0 219 67.5 392t182 293t264 183.5t313.5 63.5q96 0 179 -20.5t169 -67.5l-63 -127q-147 90 -314 90q-129 0 -246.5 -56.5t-207.5 -160.5t-143.5 -252.5t-53.5 -333.5q0 -209 90 -318.5t277 -109.5q82 0 145.5 10.5t109.5 24.5t77.5 29.5l54.5 27.5l18 -123 q-84 -45 -190.5 -69.5t-210.5 -24.5q-115 0 -210 32t-164 98.5t-106.5 170t-37.5 248.5z" />
<glyph unicode="D" horiz-adv-x="1390" d="M170 27l326 1366q100 23 182 31t162 8q313 0 464.5 -152t151.5 -430q0 -188 -61.5 -347t-181 -273.5t-298 -178t-411.5 -63.5q-41 0 -87 3t-90 7t-85 11.5t-72 17.5zM332 123q51 -8 98 -11t94 -3q193 0 339.5 56t244.5 154.5t148.5 232.5t50.5 292q0 236 -118 352.5 t-368 116.5q-51 0 -103 -4t-106 -13z" />
<glyph unicode="E" horiz-adv-x="1073" d="M170 0l340 1419h793l-27 -121h-658l-120 -493h585l-26 -119h-582l-141 -565h704l-24 -121h-844z" />
<glyph unicode="F" horiz-adv-x="1024" d="M170 0l340 1419h784l-26 -121h-650l-122 -499h579l-28 -121h-574l-164 -678h-139z" />
<glyph unicode="G" horiz-adv-x="1310" d="M283 530q0 180 57 346t163.5 293t259 204t341.5 77q92 0 157.5 -10.5t111.5 -24.5t75 -30.5t51 -26.5l-63 -127q-6 6 -35 21.5t-75 31.5t-106.5 28.5t-132.5 12.5q-152 0 -273.5 -65.5t-206.5 -174t-131 -251t-46 -297.5q0 -213 92 -328t297 -115q66 0 134.5 11.5 t140.5 35.5l120 523h140l-148 -617q-92 -37 -190 -57.5t-191 -20.5q-141 0 -244.5 39t-169 113t-97 177t-31.5 232z" />
<glyph unicode="H" horiz-adv-x="1341" d="M170 0l340 1419h139l-151 -616h735l147 616h140l-338 -1419h-140l164 682h-733l-164 -682h-139z" />
<glyph unicode="I" horiz-adv-x="471" d="M170 0l340 1419h139l-338 -1419h-141z" />
<glyph unicode="J" horiz-adv-x="921" d="M37 88l72 107q31 -31 102.5 -66t169.5 -35q55 0 104.5 11.5t92.5 44t77.5 93t59.5 158.5l246 1018h139l-246 -1034q-29 -123 -76 -203t-108.5 -128t-136 -66.5t-158.5 -18.5q-106 0 -191.5 33t-146.5 86z" />
<glyph unicode="K" horiz-adv-x="1226" d="M170 0l340 1419h137l-155 -653l218 164l230 184l208 173q95 81 150 132h185l-172 -149l-221 -183l-235 -187l-212 -167q74 -55 154 -144t154.5 -191.5t138 -207t100.5 -190.5h-152q-119 229 -255 409.5t-306 303.5l-168 -713h-139z" />
<glyph unicode="L" horiz-adv-x="970" d="M170 0l338 1419h139l-311 -1300h629l-27 -119h-768z" />
<glyph unicode="M" horiz-adv-x="1701" d="M139 0q104 383 218 741l218 678h140l62 -262q32 -139 60.5 -279.5t52 -272.5t40.5 -240l170 259l190 285l189 277l166 233h143q-18 -186 -43 -363t-52.5 -351.5t-59.5 -349.5l-66 -355h-144q72 334 124 637t91 573q-31 -39 -85 -115l-119 -173l-137 -203l-136 -206 l-119 -180q-53 -81 -81 -128h-123q-8 57 -23 141l-32 180l-37 199l-38 196q-19 93 -37 168.5l-30 122.5q-90 -270 -182 -579l-180 -633h-140z" />
<glyph unicode="N" horiz-adv-x="1370" d="M170 0l340 1419h137q76 -131 150.5 -292.5t141.5 -326.5t117 -316.5t77 -260.5l278 1196h137l-336 -1419h-137q-37 125 -92 292t-119.5 339t-132 330.5t-129.5 269.5l-295 -1231h-137z" />
<glyph unicode="O" horiz-adv-x="1531" d="M283 528q0 211 69.5 382t184 291t259 184.5t296.5 64.5q100 0 192 -34t162 -102.5t110.5 -174t40.5 -246.5q0 -213 -69.5 -384t-184 -291t-260 -184.5t-295.5 -64.5q-102 0 -193 34t-160.5 102.5t-110.5 174t-41 248.5zM430 506q0 -104 28.5 -182t80 -128.5t118 -76 t144.5 -25.5q125 0 241.5 54.5t206.5 159t145.5 257t55.5 348.5q0 104 -28.5 182.5t-80 128.5t-119 75.5t-143.5 25.5q-125 0 -241.5 -54t-207.5 -158.5t-145.5 -257t-54.5 -349.5z" />
<glyph unicode="P" horiz-adv-x="1157" d="M170 0l334 1393q78 16 167 27.5t181 11.5q244 0 358.5 -92.5t114.5 -266.5q0 -115 -46 -211t-133 -165.5t-216 -108.5t-295 -39h-193l-133 -549h-139zM469 670h184q250 0 387.5 102t137.5 283q0 133 -86 194.5t-271 61.5q-53 0 -105 -5l-95 -10z" />
<glyph unicode="Q" horiz-adv-x="1531" d="M283 528q0 211 69.5 382t184 291t259 184.5t296.5 64.5q100 0 192 -34t162 -102.5t110.5 -174t40.5 -246.5q0 -201 -62 -364.5t-165.5 -282.5t-237 -188.5t-274.5 -84.5q-6 -18 -6 -34q0 -41 32.5 -73t88 -56.5t126 -42t146.5 -29.5l-53 -115q-72 8 -155 26.5 t-153.5 52.5t-117.5 86t-47 132v26q0 13 4 27q-90 10 -171 49t-140.5 108t-94 168t-34.5 230zM430 506q0 -104 28.5 -182t80 -128.5t118 -76t144.5 -25.5q125 0 241.5 54.5t206.5 159t145.5 257t55.5 348.5q0 104 -28.5 182.5t-80 128.5t-119 75.5t-143.5 25.5 q-125 0 -241.5 -54t-207.5 -158.5t-145.5 -257t-54.5 -349.5z" />
<glyph unicode="R" horiz-adv-x="1212" d="M170 0l334 1393q72 14 156.5 26.5t175.5 12.5q242 0 362.5 -97.5t120.5 -275.5q0 -160 -102.5 -280t-311.5 -173q25 -45 59.5 -117.5t70.5 -156.5l70 -171q34 -87 56 -161h-147q-57 174 -126 324.5t-128 255.5q-68 -6 -142 -7h-172l-137 -573h-139zM473 692h170 q256 0 393.5 97.5t137.5 273.5q0 129 -86.5 188.5t-272.5 59.5q-53 0 -103 -5l-91 -10z" />
<glyph unicode="S" horiz-adv-x="997" d="M98 70l72 120q59 -45 144 -72.5t178 -27.5q74 0 142 17.5t122.5 55.5t87.5 96t33 140t-39 133.5t-97.5 88t-127 68.5t-127 77t-97.5 109.5t-39 168.5q0 74 31 147t95.5 130t161.5 93t230 36q88 0 167 -17.5t171 -62.5l-71 -117q-72 43 -142.5 60.5t-148.5 17.5 q-68 0 -130.5 -15.5t-111.5 -47t-78.5 -83.5t-29.5 -126q0 -82 38.5 -133.5t98 -88t127 -68.5t127 -76t98.5 -111.5t39 -175.5q0 -80 -32 -159t-100.5 -140.5t-174 -99.5t-252.5 -38q-98 0 -191.5 27t-173.5 74z" />
<glyph unicode="T" horiz-adv-x="1077" d="M348 1298l27 121h1009l-28 -121h-434l-312 -1298h-139l311 1298h-434z" />
<glyph unicode="U" horiz-adv-x="1327" d="M283 369q0 90 24 188l205 862h139l-207 -858q-10 -47 -17 -93t-7 -89q0 -61 14.5 -113.5t49 -91.5t90 -61.5t139.5 -22.5q94 0 165.5 26.5t126 83t93.5 144.5t69 211l209 864h140l-213 -884q-37 -150 -88.5 -257.5t-124 -176t-169 -101.5t-221.5 -33q-109 0 -187.5 30 t-129.5 83t-75.5 127t-24.5 162z" />
<glyph unicode="V" horiz-adv-x="1218" d="M348 1419h135q18 -213 37 -391t38.5 -331.5t39.5 -287t45 -253.5q197 268 384 587.5t364 675.5h155l-243 -441l-222 -375l-205 -321q-99 -148 -200 -282h-129q-29 143 -54.5 284.5t-49 305.5t-47 364.5t-48.5 464.5z" />
<glyph unicode="W" horiz-adv-x="1775" d="M349 700q5 352 28 719h135q-20 -309 -28 -625q-3 -117 -2 -235q0 -202 7 -405l161 256l149 246l151 267l172 314h123q10 -154 24.5 -305.5t30 -291.5t33 -264t33.5 -220q68 119 139 267l144 312l143 338l139 346h152q-166 -414 -330 -763t-338 -656h-147q-39 215 -72 470 t-55 552l-302 -524l-313 -498h-147q-30 304 -30 610q-1 45 0 90z" />
<glyph unicode="X" horiz-adv-x="1126" d="M20 0l646 750l-289 669h151l244 -575l250 296q117 144 215 279h156l-282 -350l-286 -328l154 -365q80 -187 149 -376h-151q-20 63 -48 138l-61 158l-69 170l-76 173l-535 -639h-168z" />
<glyph unicode="Y" horiz-adv-x="1136" d="M369 1419h151q41 -176 94.5 -363.5t118.5 -348.5l148 167l153 185l144 186q68 92 120 174h166l-319 -407l-371 -439l-135 -573h-139l135 573q-39 104 -75 215l-70 220l-64 214z" />
<glyph unicode="Z" horiz-adv-x="1120" d="M82 0l22 104q59 84 143 186l178 212l197 223l199 218l189 197l161 158h-743l29 121h909l-29 -127q-59 -53 -141 -135l-177 -179l-196 -208l-199 -222l-190 -221l-162 -206h793l-27 -121h-956z" />
<glyph unicode="[" horiz-adv-x="624" d="M119 -379l477 1983h401l-22 -103h-279l-430 -1777h281l-27 -103h-401z" />
<glyph unicode="\" horiz-adv-x="739" d="M365 1604h122l215 -1983h-122z" />
<glyph unicode="]" horiz-adv-x="626" d="M-106 -379l24 103h279l430 1777h-281l27 103h401l-477 -1983h-403z" />
<glyph unicode="^" d="M307 737l537 682h100l215 -696l-100 -45l-191 602l-469 -596z" />
<glyph unicode="_" horiz-adv-x="1124" d="M-25 -379l27 111h1024l-27 -111h-1024z" />
<glyph unicode="`" horiz-adv-x="688" d="M436 1464l109 119l299 -317l-72 -72z" />
<glyph unicode="a" horiz-adv-x="1069" d="M201 365q0 164 53 297t148.5 226t225.5 144t283 51q127 0 244 -43l-158 -637q-12 -51 -20 -96t-8 -86q0 -55 10 -104t37 -109l-137 -20q-12 25 -21.5 56.5t-13.5 64.5q-72 -70 -151 -103t-163 -33q-66 0 -125 22.5t-104 70t-72.5 122.5t-27.5 177zM336 391 q0 -84 16.5 -140t45 -90t66.5 -49.5t81 -15.5q84 0 157.5 40t139.5 114q0 55 16 127l31 129l108 438q-37 8 -67.5 12.5t-63.5 4.5q-127 0 -225 -49.5t-165.5 -129.5t-103.5 -182.5t-36 -208.5z" />
<glyph unicode="b" horiz-adv-x="1071" d="M160 35l366 1530l140 24l-140 -588q61 41 131 61.5t138 20.5q174 0 258 -106.5t84 -288.5q0 -131 -45 -259t-133.5 -228.5t-219.5 -163t-303 -62.5q-145 1 -276 60zM315 121q74 -23 146 -23q133 0 234.5 53.5t169 137.5t102 186.5t34.5 202.5q0 147 -64.5 215t-162.5 68 q-66 0 -140.5 -30t-146.5 -85z" />
<glyph unicode="c" horiz-adv-x="931" d="M201 375q0 139 43 267t126 226.5t203.5 156.5t274.5 58q106 0 211 -34l-55 -121q-47 18 -93.5 25.5t-89.5 7.5q-109 0 -197.5 -46.5t-152 -125t-98.5 -182t-35 -218.5q0 -135 62.5 -213t199.5 -78q43 0 87 8.5t81 19.5t65.5 23.5t43.5 22.5l14 -121q-41 -27 -126 -51.5 t-190 -24.5q-186 0 -280 107t-94 293z" />
<glyph unicode="d" horiz-adv-x="1105" d="M201 371q0 129 42 256t129 228t220 164.5t313 63.5q66 0 133 -12l117 494l139 24l-295 -1222q-10 -37 -15 -72t-5 -68q0 -59 10 -112.5t37 -106.5l-137 -20q-10 20 -20.5 54t-14.5 67q-18 -20 -48 -44t-71 -43.5t-92 -33t-113 -13.5q-88 0 -150.5 32t-102 85t-58 126 t-18.5 153zM336 389q0 -61 11 -113.5t36 -92.5t63.5 -62.5t94.5 -22.5q51 0 97 14.5t86 36t72.5 48t55.5 51.5q0 53 14.5 119.5t32.5 138.5l111 444q-29 4 -64 7.5t-63 3.5q-143 0 -247 -52.5t-170.5 -135.5t-98 -184.5t-31.5 -199.5z" />
<glyph unicode="e" horiz-adv-x="999" d="M201 365q0 131 40 260t117.5 231t191.5 164.5t259 62.5q143 0 220 -74.5t77 -197.5q0 -115 -56.5 -186.5t-157.5 -113.5t-243.5 -60.5t-316.5 -26.5v-43q0 -59 12 -110.5t45 -89.5t91.5 -60.5t150.5 -22.5q72 0 144.5 20.5t137.5 61.5l15 -123q-70 -39 -154 -60.5 t-170 -21.5q-113 0 -189.5 29t-124.5 80t-68.5 123t-20.5 158zM352 545q174 4 293 22.5t191.5 51t103.5 78.5t31 106q0 80 -48.5 120t-125.5 40q-82 0 -154 -34t-129 -91.5t-99.5 -133t-62.5 -159.5z" />
<glyph unicode="f" horiz-adv-x="727" d="M-29 -369q51 70 87 128.5t60.5 115.5t43 115.5t35.5 128.5l254 1055q29 123 76.5 202.5t108 126.5t130.5 66.5t141 19.5q70 0 120 -12t93 -29l-63 -106q-43 14 -81 22.5t-89 8.5q-53 0 -98.5 -14.5t-83 -49.5t-68.5 -93.5t-53 -146.5l-29 -110h354l-24 -115h-359 l-176 -735l-48 -181t-53 -155t-69 -135.5t-92 -124.5z" />
<glyph unicode="g" horiz-adv-x="1073" d="M33 -309l57 127q43 -35 124 -57.5t161 -22.5q188 0 289.5 86t132.5 244l10 53q-61 -39 -131 -58.5t-139 -19.5q-88 0 -153 28.5t-105.5 79t-61 117t-20.5 142.5q0 117 42 236.5t130 217t220 158.5t314 61q74 0 139.5 -15t116.5 -44l-229 -954q-20 -86 -53 -168 t-96.5 -145.5t-169 -102.5t-271.5 -39q-33 0 -74 5t-83 15.5t-80.5 24t-69.5 31.5zM332 438q0 -55 10 -105t34.5 -87t67.5 -58.5t111 -21.5q70 0 144.5 25.5t142.5 68.5l166 686q-66 16 -127 17q-141 0 -245 -49.5t-171.5 -126t-100 -170t-32.5 -179.5z" />
<glyph unicode="h" horiz-adv-x="1116" d="M170 0l373 1565l139 24l-135 -559q129 53 244 53q70 0 129 -20.5t104 -61t70.5 -103t25.5 -148.5q0 -53 -8 -109.5t-22 -114.5l-127 -526h-134l113 471q16 68 30.5 137.5t14.5 132.5q0 61 -19.5 103.5t-51 68t-74.5 37t-90 11.5q-59 0 -120 -12.5t-114 -30.5l-215 -918 h-133z" />
<glyph unicode="i" horiz-adv-x="481" d="M170 0l256 1059h133l-256 -1059h-133zM479 1368q0 53 30 81t64 28q41 0 63.5 -26t22.5 -67q0 -49 -32.5 -75.5t-65.5 -26.5q-41 0 -61.5 23.5t-20.5 62.5z" />
<glyph unicode="j" horiz-adv-x="481" d="M-207 -348l31 112q33 -16 62.5 -24t68.5 -8q55 0 94 22.5t68.5 62.5t49 95t36.5 121l243 1026h134l-240 -1002q-27 -111 -58.5 -193.5t-77.5 -138t-110.5 -83t-154.5 -27.5q-51 0 -87 11.5t-59 25.5zM504 1368q0 53 29.5 81t64.5 28q41 0 63.5 -26t22.5 -67 q0 -49 -33 -75.5t-65 -26.5q-41 0 -61.5 23.5t-20.5 62.5z" />
<glyph unicode="k" horiz-adv-x="1021" d="M170 0l377 1565l139 24l-235 -979q74 49 150 112l148 125q71 62 128 118.5t90 93.5h161q-37 -47 -105 -115l-145 -137q-77 -70 -152 -130.5t-124 -88.5q70 -53 136.5 -125t121.5 -152t99.5 -160.5t68.5 -150.5h-143q-90 193 -205 331t-242 224l-135 -555h-133z" />
<glyph unicode="l" horiz-adv-x="544" d="M221 256q0 49 8.5 103.5t22.5 113.5l262 1092l137 24l-254 -1067l-31 -132q-15 -62 -16 -116q0 -33 6 -60.5t24.5 -49t52.5 -37.5t87 -29l-31 -116q-150 18 -209 90.5t-59 183.5z" />
<glyph unicode="m" horiz-adv-x="1681" d="M170 0l244 1022q31 10 69.5 20.5t81.5 18.5t88 13t86 5q86 0 157 -23.5t118 -84.5q104 61 183 84.5t155 23.5q70 0 130 -15t105 -52t72 -100.5t27 -161.5q0 -53 -8.5 -109.5t-22.5 -114.5l-127 -526h-133l112 471q16 68 30.5 137.5t14.5 133t-16 105.5t-46 66.5t-69 33.5 t-84 9q-43 0 -111.5 -15t-164.5 -77q12 -53 12 -114q0 -53 -8 -109.5t-23 -114.5l-127 -526h-133l113 471q16 68 30.5 137.5t14.5 133t-16.5 105.5t-46 66.5t-68.5 33.5t-84 9q-47 0 -100.5 -8t-98.5 -20l-223 -928h-133z" />
<glyph unicode="n" horiz-adv-x="1118" d="M170 0l244 1022q80 23 170 40t178 17q74 0 139.5 -15t114.5 -54t77.5 -102.5t28.5 -157.5q0 -53 -8 -109.5t-22 -114.5l-127 -526h-134l113 471q16 68 29.5 137.5t15.5 132.5q0 63 -19.5 104.5t-53 66t-78.5 34.5t-95 10q-53 0 -108 -8t-109 -20l-223 -928h-133z" />
<glyph unicode="o" horiz-adv-x="1077" d="M201 332q0 193 54 334t139 233t188.5 137t203.5 45q72 0 136.5 -22.5t113.5 -67.5t78 -111.5t29 -152.5q0 -193 -54.5 -334t-139.5 -234t-188.5 -138.5t-203.5 -45.5q-72 0 -136.5 22.5t-113.5 68t-77.5 112t-28.5 154.5zM336 340q0 -121 67.5 -182.5t161.5 -61.5 q74 0 152 38t142.5 115t106.5 193.5t42 274.5q0 121 -68 182.5t-162 61.5q-74 0 -151.5 -38t-142 -115t-106.5 -193.5t-42 -274.5z" />
<glyph unicode="p" horiz-adv-x="1062" d="M78 -379l336 1395q86 31 172 49t170 18q373 0 372 -389q0 -137 -45 -266t-132 -228.5t-213 -158.5t-287 -59q-80 0 -148 18l-90 -379h-135zM336 123q63 -18 129 -19q127 0 225 50.5t166 131.5t102.5 182t34.5 206q0 154 -67.5 224.5t-202.5 70.5q-47 0 -95 -8.5 t-100 -22.5z" />
<glyph unicode="q" horiz-adv-x="1103" d="M201 360q0 129 42 259.5t133 232.5t235.5 166.5t351.5 64.5q39 0 101 -12t105 -41l-340 -1409h-133l99 412q-47 -27 -114 -42.5t-140 -15.5q-92 0 -157 32t-105.5 85t-59 122.5t-18.5 145.5zM336 379q0 -43 8 -93t32.5 -93t71 -72t121.5 -29q72 0 141.5 25.5t120.5 66.5 l185 764q-23 4 -48.5 10.5t-45.5 6.5q-133 0 -241 -44t-184.5 -122t-118.5 -185.5t-42 -234.5z" />
<glyph unicode="r" horiz-adv-x="749" d="M170 0l242 1012q78 31 171 51t183 20q47 0 90 -6t82 -20l-35 -121q-80 25 -164 25q-53 0 -106 -8.5t-107 -24.5l-223 -928h-133z" />
<glyph unicode="s" horiz-adv-x="819" d="M98 47l58 121q76 -41 133 -55.5t129 -14.5q51 0 98 11.5t82 34t55.5 59.5t20.5 86q0 53 -30 88t-74 60.5t-95 50t-95 57.5t-74 82t-30 127q0 88 33 150.5t88.5 102.5t127 58t147.5 18q66 0 130 -11t124 -34l-54 -118q-43 18 -98 29.5t-115 11.5q-49 0 -95 -10.5 t-80.5 -34t-56 -59.5t-21.5 -87q0 -53 29.5 -88t72.5 -61.5t95 -50t95 -56.5t73 -79t30 -118q0 -90 -34 -155.5t-89 -106.5t-127 -60.5t-148 -19.5q-80 0 -159.5 17.5t-145.5 54.5z" />
<glyph unicode="t" horiz-adv-x="772" d="M231 223q0 88 29 203l227 944l140 25l-80 -336h373l-27 -115h-375l-125 -518q-10 -37 -17 -79t-7 -83q0 -92 45 -129t112 -37q66 0 114 14.5t101 39.5l13 -121q-55 -23 -124 -39.5t-136 -16.5q-53 0 -100.5 12.5t-83.5 41t-57.5 75.5t-21.5 119z" />
<glyph unicode="u" horiz-adv-x="1069" d="M201 272q0 59 10 126t27 134l127 527h133l-113 -467l-36 -151q-19 -79 -19 -150q0 -41 9 -76t31.5 -61.5t59.5 -41t94 -14.5q98 0 173 39t141 113q0 55 16 127l31 129l137 553h133l-162 -656q-12 -51 -20 -96t-8 -86q0 -55 10 -104t37 -109l-138 -20q-12 25 -21 56.5 t-13 64.5q-72 -70 -153 -102t-179 -32q-88 0 -147.5 22.5t-94.5 62.5t-50 94.5t-15 117.5z" />
<glyph unicode="v" horiz-adv-x="931" d="M266 1059h131q2 -111 10.5 -234t22.5 -245.5t33.5 -237.5t44.5 -205q61 82 134 195.5t142.5 239.5t128 252t93.5 235h131q-41 -129 -106.5 -270.5t-145.5 -280.5t-171 -270.5t-179 -237.5h-132q-51 227 -92 499.5t-45 559.5z" />
<glyph unicode="w" horiz-adv-x="1562" d="M266 1059h131q2 -109 8.5 -237t16.5 -255t22.5 -239.5t28.5 -188.5q66 92 134.5 205t131 234.5t116.5 244.5t91 236h137q0 -100 5.5 -219t13.5 -242t19.5 -241.5t25.5 -217.5q49 55 119.5 167t142.5 244t134.5 267t92.5 242h131q-47 -152 -122.5 -310.5t-160.5 -301 t-169 -260t-148 -187.5h-139q-20 180 -38.5 389t-22.5 412q-41 -96 -95.5 -206t-116 -217.5t-126 -205.5t-125.5 -172h-139q-43 225 -69 493.5t-30 565.5z" />
<glyph unicode="x" horiz-adv-x="925" d="M25 0l495 555l-262 504h156l207 -428l183 228q89 114 142 200h148q-90 -135 -200 -271l-212 -253l59 -115l67 -134q34 -71 63.5 -143.5t52.5 -142.5h-140q-14 47 -36.5 105.5t-50.5 119.5l-56 122l-53 110l-402 -457h-161z" />
<glyph unicode="y" horiz-adv-x="925" d="M-121 -348l47 110q55 -31 125 -30q104 0 204.5 57t186.5 174q-86 272 -135 553t-57 543h139q4 -98 13.5 -215t28 -244t45 -259t65.5 -257q92 145 165.5 293.5t129 279.5t91.5 236.5t52 165.5h131q-12 -43 -45 -146.5t-88 -240.5t-134 -296t-181 -310 q-158 -236 -305.5 -343.5t-307.5 -107.5q-37 0 -80 6t-90 31z" />
<glyph unicode="z" horiz-adv-x="876" d="M82 0l22 94q41 66 102.5 143.5t132.5 157.5l146 160l149 152l137 133l114 104h-551l24 115h723l-24 -105l-111 -102l-145 -140l-160 -162l-157 -165q-75 -80 -134 -150.5t-90 -119.5h604l-24 -115h-758z" />
<glyph unicode="{" horiz-adv-x="624" d="M221 541l25 100q59 0 99 29.5t66.5 75t43 96.5t26.5 94l54 213q29 117 55 198.5t71.5 134t119 77t196.5 24.5l-27 -102q-51 0 -93 -7.5t-75.5 -31t-59.5 -67.5t-44 -115l-60 -242q-25 -96 -47 -169t-48.5 -126t-60.5 -88t-81 -55q51 -31 66.5 -76t15.5 -96q0 -37 -7 -75 t-16 -73l-82 -338q-14 -55 -14 -96q0 -66 45 -94.5t133 -28.5l-28 -102q-127 0 -198 50t-71 159q0 23 6.5 60.5t16.5 78.5l78 315q10 37 15 71t5 62q0 59 -27.5 98.5t-97.5 45.5z" />
<glyph unicode="|" horiz-adv-x="550" d="M119 -379l477 1983h123l-477 -1983h-123z" />
<glyph unicode="}" horiz-adv-x="624" d="M-37 -399l27 102q51 0 93 7t76 30.5t59.5 68t43.5 115.5l60 242q25 96 47 169t48.5 126t60.5 88t81 55q-51 31 -66.5 76t-15.5 96q0 37 7.5 75t15.5 73l82 338q14 55 14 96q0 66 -45 94.5t-133 28.5l28 102q127 0 198 -50t71 -159q0 -23 -6.5 -60.5t-16.5 -78.5l-78 -315 q-10 -37 -15 -71t-5 -63q0 -59 27.5 -98t97.5 -45l-25 -100q-59 0 -99 -30t-66.5 -75t-43 -96t-26.5 -94l-53 -213q-29 -117 -55.5 -200t-72 -135t-119 -75.5t-196.5 -23.5z" />
<glyph unicode="~" d="M217 483q14 35 39 80t62.5 85t89 67.5t118.5 27.5q66 0 112 -29.5t86 -65.5t81 -65.5t96 -29.5q43 0 76 21.5t56.5 50t37.5 56.5l21 40l98 -33q-12 -33 -35.5 -78t-62.5 -85t-92.5 -67.5t-122.5 -27.5q-66 0 -112 29.5t-86 65.5t-80 66t-93 30q-43 0 -76 -23t-56.5 -51.5 t-37.5 -56.5l-21 -39z" />
<glyph unicode="&#xa1;" horiz-adv-x="544" d="M188 -379h144l94 395q41 174 63.5 313.5t38.5 274.5h-73q-20 -53 -46 -138l-52 -173l-46 -165l-28 -110zM461 940q0 45 30.5 85t86.5 40q53 0 77.5 -29.5t24.5 -68.5q0 -45 -31 -85t-86 -40q-53 0 -77.5 29.5t-24.5 68.5z" />
<glyph unicode="&#xa2;" d="M305 453q0 115 36 225t104.5 202.5t170 158t232.5 87.5l72 293h120l-69 -289q51 0 112.5 -13t112.5 -36l-53 -116q-55 27 -108.5 38t-106.5 11q-102 0 -190.5 -43t-155 -119t-104.5 -179.5t-38 -221.5q0 -72 23.5 -123.5t63.5 -84t93.5 -48t110.5 -15.5q63 0 128 16.5 t120 47.5l8 -119q-31 -16 -106.5 -39t-165.5 -23l-70 -286h-121l72 293q-80 16 -136.5 53t-90 87t-49 112.5t-15.5 130.5z" />
<glyph unicode="&#xa3;" d="M264 0l112 305q58 164 93 328h-197l27 112h197l45 189q35 147 86 245.5t116.5 158t145.5 84t174 24.5q70 0 135.5 -18.5t118.5 -49.5l-64 -110q-88 53 -215 53q-63 0 -117.5 -17.5t-99.5 -61.5t-80.5 -118.5t-62.5 -187.5l-45 -191h401l-28 -112h-400 q-23 -109 -64.5 -247t-95.5 -269h613l-29 -117h-766z" />
<glyph unicode="&#xa4;" d="M295 319l151 156q-35 47 -53 107.5t-18 128t18.5 128t52.5 107.5l-151 156l82 84l155 -160q47 35 104.5 53.5t121 18.5t121 -18.5t104.5 -53.5l156 160l82 -84l-152 -156q35 -47 53.5 -107.5t18.5 -128t-18.5 -128t-53.5 -107.5l152 -156l-82 -83l-156 159 q-47 -35 -104.5 -53t-121 -18t-120.5 18t-105 53l-155 -159zM494 710.5q0 -61.5 20.5 -112.5t56 -88t83.5 -57.5t103.5 -20.5t103.5 20.5t84 57.5t56.5 88t20.5 112.5t-20.5 112.5t-56.5 88t-84 57.5t-103.5 20.5t-103.5 -20.5t-83.5 -57.5t-56 -88t-20.5 -112.5z" />
<glyph unicode="&#xa5;" d="M211 236l27 108h342l57 244h-342l27 108h313q-78 190 -137.5 367.5t-104.5 355.5h142q37 -174 87 -334.5t119 -322.5q147 162 280 328l253 329h135l-131 -176l-136 -178l-150 -182q-79 -92 -171 -187h320l-27 -108h-344l-57 -244h344l-27 -108h-344l-57 -236h-133l57 236 h-342z" />
<glyph unicode="&#xa6;" horiz-adv-x="538" d="M127 -379l184 768h127l-184 -768h-127zM418 834l186 770h127l-184 -770h-129z" />
<glyph unicode="&#xa7;" horiz-adv-x="1007" d="M119 -150l63 115q53 -37 127 -55.5t150 -18.5q59 0 115.5 12.5t99.5 39t69.5 66.5t26.5 95q0 57 -37 92t-93 59t-120.5 45.5t-121 55t-93.5 87t-37 139.5q0 117 74 206t199 160q-31 39 -47.5 83t-16.5 85q0 88 37 151.5t97.5 103.5t138 59.5t159.5 19.5q78 0 153 -16.5 t134 -47.5l-57 -104q-47 33 -108.5 48.5t-123.5 15.5q-57 0 -110.5 -13.5t-94 -39t-65.5 -63.5t-25 -87q0 -66 36 -102.5t88 -61.5t114.5 -45.5t115 -52t88.5 -84t36 -138.5q0 -115 -74 -201.5t-191 -152.5q37 -29 59.5 -73t22.5 -103q0 -92 -39 -158.5t-102.5 -109.5 t-145 -63.5t-170 -20.5t-174 18t-157.5 55zM403 602q0 -61 35 -101t113 -71l164 -68q106 45 172.5 121t66.5 154q0 51 -28.5 93t-118.5 77l-193 76q-41 -23 -78.5 -51.5t-67.5 -64.5t-47.5 -78t-17.5 -87z" />
<glyph unicode="&#xa8;" horiz-adv-x="688" d="M360 1366q0 41 27 76t76 35q47 0 68.5 -27t21.5 -59q0 -39 -27.5 -75t-76.5 -36q-45 0 -67 25.5t-22 60.5zM713 1366q0 41 27.5 76t76.5 35q45 0 66.5 -27t21.5 -59q0 -39 -26.5 -75t-75.5 -36q-47 0 -68.5 25.5t-21.5 60.5z" />
<glyph unicode="&#xa9;" horiz-adv-x="1544" d="M242 711q0 174 57 312t152.5 232.5t221.5 144.5t263 50t263 -50t221.5 -144.5t152.5 -232.5t57 -312q0 -176 -57 -313.5t-152.5 -232.5t-221.5 -145.5t-263 -50.5t-263 50.5t-221.5 145.5t-152.5 232.5t-57 313.5zM362 710.5q0 -141.5 43.5 -258t119 -199.5t181 -129 t230.5 -46t230.5 46t181 129t118.5 199.5t43 258t-43 258t-118.5 199.5t-181 128t-230.5 45t-230.5 -45t-181 -128t-119 -199.5t-43.5 -258zM569 713q0 98 32 175t85 131t123 81.5t145 27.5q100 0 163 -27.5t85 -43.5l-39 -92q-31 16 -79 35.5t-130 19.5q-113 0 -187.5 -80 t-74.5 -227q0 -152 73 -233t198 -81q88 0 138 19.5t73 34.5l34 -99q-27 -16 -94 -39.5t-168 -23.5q-80 0 -148.5 28.5t-119.5 82t-80 132.5t-29 179z" />
<glyph unicode="&#xaa;" horiz-adv-x="888" d="M375 940q0 90 33.5 179t100 161t164 117t224.5 45q27 0 77 -10.5t83 -26.5q-18 -70 -43 -148l-46 -150q-22 -73 -36 -135.5t-14 -103.5q0 -39 14 -84t45 -92l-113 -20q-12 18 -18 34l-15 35q-37 -23 -90 -42t-131 -19q-117 0 -176 68.5t-59 191.5zM494 934 q0 -86 38.5 -121t98.5 -35q41 0 88 16.5t90 47.5q-2 10 -2 24v21q0 16 3 45t15 76l88 327q-10 4 -20 6t-29 2q-86 0 -155.5 -36.5t-116.5 -95t-72.5 -132t-25.5 -145.5z" />
<glyph unicode="&#xab;" horiz-adv-x="978" d="M242 582l387 432l73 -62l-303 -379l170 -380l-94 -46zM604 582l387 432l74 -62l-303 -379l170 -380l-94 -46z" />
<glyph unicode="&#xac;" d="M268 676l27 115h885l-162 -680h-119l135 565h-766z" />
<glyph unicode="&#xad;" horiz-adv-x="571" d="M162 528l31 129h466l-30 -129h-467z" />
<glyph unicode="&#xae;" horiz-adv-x="1544" d="M242 711q0 174 57 312t152.5 232.5t221.5 144.5t263 50t263 -50t221.5 -144.5t152.5 -232.5t57 -312q0 -176 -57 -313.5t-152.5 -232.5t-221.5 -145.5t-263 -50.5t-263 50.5t-221.5 145.5t-152.5 232.5t-57 313.5zM362 710.5q0 -141.5 43.5 -258t119 -199.5t181 -129 t230.5 -46t230.5 46t181 129t118.5 199.5t43 258t-43 258t-118.5 199.5t-181 128t-230.5 45t-230.5 -45t-181 -128t-119 -199.5t-43.5 -258zM655 305v793q47 10 105.5 16t109.5 6q174 0 265.5 -63.5t91.5 -192.5q0 -74 -41 -132t-121 -87q16 -18 44 -56t58.5 -85 t61.5 -100.5t53 -98.5h-125q-53 96 -110.5 183t-100.5 139q-14 -2 -26 -2h-23h-129v-320h-113zM768 717h102q51 0 94.5 6t75 23.5t49 46t17.5 73.5q0 43 -19.5 73t-51 48.5t-72.5 26.5t-86 8q-31 0 -58.5 -1t-50.5 -3v-301z" />
<glyph unicode="&#xaf;" horiz-adv-x="688" d="M360 1325l27 117h531l-27 -117h-531z" />
<glyph unicode="&#xb0;" horiz-adv-x="632" d="M344 1314.5q0 63.5 21.5 114t58.5 84t85 52t101.5 18.5t101.5 -18.5t85 -52t58.5 -84t21.5 -114t-21.5 -113.5t-58.5 -84t-85 -52t-101.5 -18t-101.5 18t-85 52t-58.5 84t-21.5 113.5zM442 1315q0 -82 48.5 -129t120 -47t119.5 47t48 129t-48 129t-119.5 47t-120 -47 t-48.5 -129z" />
<glyph unicode="&#xb1;" d="M152 2l26 115h879l-27 -115h-878zM297 707l29 114h389l108 445h121l-108 -445h389l-29 -114h-387l-109 -447h-118l106 447h-391z" />
<glyph unicode="&#xb2;" horiz-adv-x="743" d="M276 649q6 92 46 156.5t96.5 112t120 83t118 71.5t90 77t35.5 100q0 51 -31.5 77t-78.5 26q-63 0 -117.5 -20.5t-91.5 -49.5l-39 76q59 49 120.5 70.5t129.5 21.5q43 0 83 -9t71.5 -30.5t50 -59.5t18.5 -94q0 -66 -34 -116.5t-84 -91.5t-111.5 -77t-115.5 -71t-95 -71.5 t-51 -81.5h389l-25 -99h-494z" />
<glyph unicode="&#xb3;" horiz-adv-x="743" d="M279 682l43 90q37 -20 86 -30.5t100 -10.5q111 0 175.5 46t64.5 120q0 66 -52.5 95.5t-175.5 29.5h-12l22 92h45q111 0 168.5 45t57.5 105q0 90 -121 90q-53 0 -108.5 -15.5t-86.5 -31.5l-22 82q51 29 113.5 45t128.5 16q104 0 155 -51t51 -119q0 -59 -43 -119.5 t-129 -93.5q66 -23 94.5 -67t28.5 -97q0 -47 -20.5 -95t-63.5 -87t-111.5 -63.5t-164.5 -24.5q-59 0 -117.5 12t-105.5 37z" />
<glyph unicode="&#xb4;" horiz-adv-x="688" d="M442 1284l340 299l78 -127l-358 -262z" />
<glyph unicode="&#xb5;" horiz-adv-x="1148" d="M78 -379l346 1438h133l-113 -467q-16 -72 -37.5 -153t-21.5 -152q0 -92 42 -140.5t157 -48.5q98 0 170.5 32t138.5 97q2 53 15.5 118t35.5 161l137 553h133l-161 -656q-10 -39 -17.5 -78.5t-7.5 -72.5q0 -27 4 -50.5t17.5 -44t40 -34.5t69.5 -23l-33 -118q-20 0 -52 6 t-62.5 20.5t-57 37t-39.5 54.5q-80 -66 -168 -95.5t-180 -29.5t-151.5 29t-93.5 72l-111 -455h-133z" />
<glyph unicode="&#xb6;" horiz-adv-x="1198" d="M283 895q0 102 45 199.5t137 172t231.5 121t325.5 46.5q41 0 91 -2t99.5 -6.5t93.5 -10.5t74 -16l-426 -1778h-118l405 1682q-43 4 -83 7t-83 3h-34q-17 0 -35 -2l-408 -1690h-119l219 920q-104 0 -182 28.5t-130 77.5t-77.5 112.5t-25.5 135.5z" />
<glyph unicode="&#xb7;" horiz-adv-x="415" d="M242 686q0 45 30.5 85t85.5 40q53 0 78 -29.5t25 -68.5q0 -45 -31 -85t-86 -40q-53 0 -77.5 29.5t-24.5 68.5z" />
<glyph unicode="&#xb8;" horiz-adv-x="688" d="M72 -358l37 88q45 -18 100 -19q47 0 75.5 14.5t28.5 49.5q0 31 -19.5 49t-76.5 41q10 20 28 47l36 52q18 26 34 46l25 31h96l-42 -58l-42 -61q47 -27 68.5 -54.5t21.5 -76.5q0 -84 -64.5 -129t-162.5 -45q-35 0 -68.5 4.5t-74.5 20.5z" />
<glyph unicode="&#xb9;" horiz-adv-x="743" d="M463 1270q100 35 172 72.5t135 89.5h74l-187 -783h-110l151 631q-59 -41 -124.5 -64.5t-94.5 -31.5z" />
<glyph unicode="&#xba;" horiz-adv-x="909" d="M375 942q0 90 29.5 179t86 161t139.5 117t191 45q61 0 105.5 -21.5t74 -58.5t43 -85t13.5 -99q0 -90 -30 -179.5t-86 -161t-140 -116.5t-191 -45q-61 0 -105 21.5t-74 58.5t-43 84t-13 100zM494 961q0 -182 145 -183q68 0 123 36t94 91.5t60.5 123t21.5 132.5 q0 182 -145 182q-68 0 -123.5 -35.5t-94 -91t-60 -122.5t-21.5 -133z" />
<glyph unicode="&#xbb;" horiz-adv-x="978" d="M221 209l303 379l-170 381l95 45l233 -434l-387 -433zM584 209l303 379l-170 381l94 45l233 -434l-387 -433z" />
<glyph unicode="&#xbc;" horiz-adv-x="1798" d="M336 0l1149 1419h143l-1149 -1419h-143zM420 1270q100 35 172 72.5t135 89.5h74l-187 -783h-110l151 631q-59 -41 -124.5 -64.5t-94.5 -31.5zM1024 199l16 67q33 51 92.5 123t131 145.5t149.5 140t146 109.5h96l-119 -495h98l-22 -90h-96l-48 -197h-108l45 197h-381z M1161 289h269l88 368q-94 -74 -187.5 -171t-169.5 -197z" />
<glyph unicode="&#xbd;" horiz-adv-x="1798" d="M356 0l1149 1419h144l-1149 -1419h-144zM440 1270q100 35 172 72.5t136 89.5h73l-186 -783h-111l152 631q-59 -41 -125 -64.5t-94 -31.5zM1141 2q6 92 46 156.5t96 111.5t119.5 83t118 72t90.5 77t36 100q0 51 -32 77t-79 26q-63 0 -117.5 -20.5t-91.5 -49.5l-39 76 q59 49 120.5 70.5t129.5 21.5q43 0 83 -9.5t71.5 -31t50 -59t18.5 -93.5q0 -66 -33.5 -117t-84 -92t-112 -76.5t-115.5 -70.5t-95 -72t-51 -82h389l-25 -98h-493z" />
<glyph unicode="&#xbe;" horiz-adv-x="1798" d="M258 682l43 90q37 -20 86 -30.5t100 -10.5q111 0 175.5 46t64.5 120q0 66 -52 95.5t-175 29.5h-13l23 92h45q111 0 168 45t57 105q0 90 -121 90q-53 0 -108 -15.5t-86 -31.5l-23 82q51 29 113.5 45t128.5 16q104 0 155.5 -51t51.5 -119q0 -59 -43 -119.5t-129 -93.5 q66 -23 94.5 -67t28.5 -97q0 -47 -20.5 -95t-63.5 -87t-111.5 -63.5t-165.5 -24.5q-59 0 -117.5 12t-105.5 37zM412 0l1149 1419h143l-1149 -1419h-143zM1149 199l16 67q33 51 92.5 123t131 145.5t149.5 140t145 109.5h97l-119 -495h98l-22 -90h-97l-47 -197h-108l45 197 h-381zM1286 289h268l88 368q-94 -74 -187 -171t-169 -197z" />
<glyph unicode="&#xbf;" horiz-adv-x="788" d="M188 -113q0 -76 25 -128t67 -83.5t97 -46t117 -14.5q76 0 151.5 18.5t136.5 47.5l-16 112q-49 -23 -115.5 -41t-132.5 -18q-37 0 -70.5 8t-59.5 26.5t-41 48t-15 74.5q0 80 45 145.5t158 149.5l24 19q55 43 101.5 87t81 94t55 109.5t22.5 133.5h-112q0 -78 -38 -139.5 t-96.5 -116t-125 -105.5t-125 -107.5t-96.5 -123t-38 -150.5zM684 965q0 45 30.5 85t86.5 40q53 0 77.5 -30t24.5 -69q0 -45 -30.5 -85t-86.5 -40q-53 0 -77.5 30t-24.5 69z" />
<glyph unicode="&#xc0;" horiz-adv-x="1273" d="M41 0q211 381 434 741l438 678h150q51 -299 101 -646t98 -773h-144q-10 98 -21 195l-24 194h-667l-107 -190l-106 -199h-152zM475 508h584q-23 184 -49 370l-58 382l-243 -375zM797 1772l108 118l299 -317l-71 -72z" />
<glyph unicode="&#xc1;" horiz-adv-x="1273" d="M41 0q211 381 434 741l438 678h150q51 -299 101 -646t98 -773h-144q-10 98 -21 195l-24 194h-667l-107 -190l-106 -199h-152zM475 508h584q-23 184 -49 370l-58 382l-243 -375zM883 1591l340 299l77 -127l-358 -262z" />
<glyph unicode="&#xc2;" horiz-adv-x="1273" d="M41 0q211 381 434 741l438 678h150q51 -299 101 -646t98 -773h-144q-10 98 -21 195l-24 194h-667l-107 -190l-106 -199h-152zM475 508h584q-23 184 -49 370l-58 382l-243 -375zM745 1571l347 301l202 -301l-69 -68l-166 197l-260 -197z" />
<glyph unicode="&#xc3;" horiz-adv-x="1273" d="M41 0q211 381 434 741l438 678h150q51 -299 101 -646t98 -773h-144q-10 98 -21 195l-24 194h-667l-107 -190l-106 -199h-152zM475 508h584q-23 184 -49 370l-58 382l-243 -375zM709 1630q16 29 36.5 57.5t48 51t64.5 36t88 13.5q37 0 65.5 -12.5t55.5 -27.5t55.5 -27.5 t65.5 -12.5q45 0 73.5 23.5t61.5 70.5l74 -47q-16 -29 -37 -57.5t-48.5 -50t-64.5 -35t-88 -13.5q-39 0 -67.5 12.5t-55 28t-54.5 27.5t-64 12q-45 0 -74 -23.5t-62 -70.5z" />
<glyph unicode="&#xc4;" horiz-adv-x="1273" d="M41 0q211 381 434 741l438 678h150q51 -299 101 -646t98 -773h-144q-10 98 -21 195l-24 194h-667l-107 -190l-106 -199h-152zM475 508h584q-23 184 -49 370l-58 382l-243 -375zM782 1681q0 41 27 76t76 35q47 0 68.5 -26.5t21.5 -59.5q0 -39 -27.5 -75t-77.5 -36 q-45 0 -66.5 25.5t-21.5 60.5zM1135 1681q0 41 27.5 76t76.5 35q45 0 66.5 -26.5t21.5 -59.5q0 -39 -26.5 -75t-75.5 -36q-47 0 -68.5 25.5t-21.5 60.5z" />
<glyph unicode="&#xc5;" horiz-adv-x="1273" d="M41 0q199 358 414 707l419 653q-66 55 -65 149q0 88 58.5 141.5t138.5 53.5q39 0 74.5 -14.5t62 -40t42 -61.5t15.5 -79q0 -68 -33.5 -114.5t-87.5 -69.5q47 -285 92.5 -607.5t90.5 -717.5h-144q-10 98 -21 195l-24 194h-667l-107 -190l-106 -199h-152zM475 508h584 q-23 184 -49 370l-58 382l-243 -375zM889 1509q0 -59 33.5 -89.5t83 -30.5t83 30.5t33.5 89.5q0 57 -33.5 89t-83 32t-83 -32t-33.5 -89z" />
<glyph unicode="&#xc6;" horiz-adv-x="1824" d="M37 0l284 388l283 355l293 338l315 338h842l-26 -121h-617l-121 -493h545l-27 -119h-540l-142 -565h664l-25 -121h-802l92 389h-584l-146 -195l-137 -194h-151zM565 508h518l195 811l-143 -148l-176 -191l-193 -225z" />
<glyph unicode="&#xc7;" horiz-adv-x="1249" d="M283 518q0 219 67.5 392t182 293t264 183.5t313.5 63.5q96 0 179 -20.5t169 -67.5l-63 -127q-147 90 -314 90q-129 0 -246.5 -56.5t-207.5 -160.5t-143.5 -252.5t-53.5 -333.5q0 -209 90 -318.5t277 -109.5q82 0 145.5 10.5t109.5 24.5t77.5 29.5l54.5 27.5l18 -123 q-80 -43 -183.5 -67.5t-203.5 -26.5q-16 -20 -31 -47q47 -27 68.5 -54.5t21.5 -76.5q0 -84 -64.5 -129t-162.5 -45q-35 0 -68.5 4t-74.5 21l37 88q45 -18 100 -19q47 0 75.5 14.5t28.5 49.5q0 31 -19 49t-77 41q10 23 29.5 52.5t40.5 55.5q-98 10 -178 47t-137.5 103.5 t-89 164t-31.5 230.5z" />
<glyph unicode="&#xc8;" horiz-adv-x="1073" d="M170 0l340 1419h793l-27 -121h-658l-120 -493h585l-26 -119h-582l-141 -565h704l-24 -121h-844zM711 1772l108 118l299 -317l-71 -72z" />
<glyph unicode="&#xc9;" horiz-adv-x="1073" d="M170 0l340 1419h793l-27 -121h-658l-120 -493h585l-26 -119h-582l-141 -565h704l-24 -121h-844zM762 1591l340 299l78 -127l-359 -262z" />
<glyph unicode="&#xca;" horiz-adv-x="1073" d="M170 0l340 1419h793l-27 -121h-658l-120 -493h585l-26 -119h-582l-141 -565h704l-24 -121h-844zM655 1571l346 301l203 -301l-69 -68l-166 197l-260 -197z" />
<glyph unicode="&#xcb;" horiz-adv-x="1073" d="M170 0l340 1419h793l-27 -121h-658l-120 -493h585l-26 -119h-582l-141 -565h704l-24 -121h-844zM696 1681q0 41 27 76t76 35q47 0 68.5 -26.5t21.5 -59.5q0 -39 -27.5 -75t-77.5 -36q-45 0 -66.5 25.5t-21.5 60.5zM1049 1681q0 41 27.5 76t76.5 35q45 0 66.5 -26.5 t21.5 -59.5q0 -39 -26.5 -75t-75.5 -36q-47 0 -68.5 25.5t-21.5 60.5z" />
<glyph unicode="&#xcc;" horiz-adv-x="471" d="M170 0l340 1419h139l-338 -1419h-141zM338 1772l108 118l299 -317l-71 -72z" />
<glyph unicode="&#xcd;" horiz-adv-x="471" d="M170 0l340 1419h139l-338 -1419h-141zM444 1591l340 299l78 -127l-358 -262z" />
<glyph unicode="&#xce;" horiz-adv-x="471" d="M170 0l340 1419h139l-338 -1419h-141zM332 1571l346 301l203 -301l-70 -68l-166 197l-260 -197z" />
<glyph unicode="&#xcf;" horiz-adv-x="471" d="M170 0l340 1419h139l-338 -1419h-141zM373 1681q0 41 26.5 76t75.5 35q47 0 68.5 -26.5t21.5 -59.5q0 -39 -27.5 -75t-76.5 -36q-45 0 -66.5 25.5t-21.5 60.5zM725 1681q0 41 27.5 76t76.5 35q45 0 67 -26.5t22 -59.5q0 -39 -27 -75t-76 -36q-47 0 -68.5 25.5t-21.5 60.5 z" />
<glyph unicode="&#xd0;" horiz-adv-x="1417" d="M190 686l27 113h164l141 594q100 23 182 31t162 8q295 0 456 -138.5t161 -421.5q0 -162 -49.5 -320.5t-162 -283.5t-293.5 -202.5t-448 -77.5q-41 0 -87 3t-90 7t-85 11t-71 18l157 659h-164zM358 123q51 -8 98.5 -11t94.5 -3q182 0 327.5 54t247 154.5t155.5 244 t54 319.5q0 119 -39 201.5t-105.5 134t-154.5 74t-188 22.5q-51 0 -103.5 -4t-105.5 -13l-119 -497h268l-26 -113h-268z" />
<glyph unicode="&#xd1;" horiz-adv-x="1370" d="M170 0l340 1419h137q76 -131 150.5 -292.5t141.5 -326.5t117 -316.5t77 -260.5l278 1196h137l-336 -1419h-137q-37 125 -92 292t-119.5 339t-132 330.5t-129.5 269.5l-295 -1231h-137zM739 1630q16 29 37 57.5t48.5 51t64.5 36t88 13.5q37 0 65.5 -12.5t55 -27.5 t55.5 -27.5t66 -12.5q45 0 73.5 23.5t61.5 70.5l73 -47q-16 -29 -36.5 -57.5t-48 -50t-64.5 -35t-88 -13.5q-39 0 -67.5 12.5t-55.5 28t-54.5 27.5t-64.5 12q-45 0 -73.5 -23.5t-61.5 -70.5z" />
<glyph unicode="&#xd2;" horiz-adv-x="1531" d="M283 528q0 211 69.5 382t184 291t259 184.5t296.5 64.5q100 0 192 -34t162 -102.5t110.5 -174t40.5 -246.5q0 -213 -69.5 -384t-184 -291t-260 -184.5t-295.5 -64.5q-102 0 -193 34t-160.5 102.5t-110.5 174t-41 248.5zM430 506q0 -104 28.5 -182t80 -128.5t118 -76 t144.5 -25.5q125 0 241.5 54.5t206.5 159t145.5 257t55.5 348.5q0 104 -28.5 182.5t-80 128.5t-119 75.5t-143.5 25.5q-125 0 -241.5 -54t-207.5 -158.5t-145.5 -257t-54.5 -349.5zM874 1772l109 118l299 -317l-72 -72z" />
<glyph unicode="&#xd3;" horiz-adv-x="1531" d="M283 528q0 211 69.5 382t184 291t259 184.5t296.5 64.5q100 0 192 -34t162 -102.5t110.5 -174t40.5 -246.5q0 -213 -69.5 -384t-184 -291t-260 -184.5t-295.5 -64.5q-102 0 -193 34t-160.5 102.5t-110.5 174t-41 248.5zM430 506q0 -104 28.5 -182t80 -128.5t118 -76 t144.5 -25.5q125 0 241.5 54.5t206.5 159t145.5 257t55.5 348.5q0 104 -28.5 182.5t-80 128.5t-119 75.5t-143.5 25.5q-125 0 -241.5 -54t-207.5 -158.5t-145.5 -257t-54.5 -349.5zM995 1591l340 299l78 -127l-358 -262z" />
<glyph unicode="&#xd4;" horiz-adv-x="1531" d="M283 528q0 211 69.5 382t184 291t259 184.5t296.5 64.5q100 0 192 -34t162 -102.5t110.5 -174t40.5 -246.5q0 -213 -69.5 -384t-184 -291t-260 -184.5t-295.5 -64.5q-102 0 -193 34t-160.5 102.5t-110.5 174t-41 248.5zM430 506q0 -104 28.5 -182t80 -128.5t118 -76 t144.5 -25.5q125 0 241.5 54.5t206.5 159t145.5 257t55.5 348.5q0 104 -28.5 182.5t-80 128.5t-119 75.5t-143.5 25.5q-125 0 -241.5 -54t-207.5 -158.5t-145.5 -257t-54.5 -349.5zM858 1571l346 301l203 -301l-70 -68l-166 197l-260 -197z" />
<glyph unicode="&#xd5;" horiz-adv-x="1531" d="M283 528q0 211 69.5 382t184 291t259 184.5t296.5 64.5q100 0 192 -34t162 -102.5t110.5 -174t40.5 -246.5q0 -213 -69.5 -384t-184 -291t-260 -184.5t-295.5 -64.5q-102 0 -193 34t-160.5 102.5t-110.5 174t-41 248.5zM430 506q0 -104 28.5 -182t80 -128.5t118 -76 t144.5 -25.5q125 0 241.5 54.5t206.5 159t145.5 257t55.5 348.5q0 104 -28.5 182.5t-80 128.5t-119 75.5t-143.5 25.5q-125 0 -241.5 -54t-207.5 -158.5t-145.5 -257t-54.5 -349.5zM805 1630q16 29 36.5 57.5t48.5 51t64.5 36t87.5 13.5q37 0 66 -12.5t55.5 -27.5t55 -27.5 t65.5 -12.5q45 0 73.5 23.5t61.5 70.5l74 -47q-16 -29 -36.5 -57.5t-48.5 -50t-64.5 -35t-88.5 -13.5q-39 0 -67.5 12.5t-55 28t-54 27.5t-64.5 12q-45 0 -74 -23.5t-61 -70.5z" />
<glyph unicode="&#xd6;" horiz-adv-x="1531" d="M283 528q0 211 69.5 382t184 291t259 184.5t296.5 64.5q100 0 192 -34t162 -102.5t110.5 -174t40.5 -246.5q0 -213 -69.5 -384t-184 -291t-260 -184.5t-295.5 -64.5q-102 0 -193 34t-160.5 102.5t-110.5 174t-41 248.5zM430 506q0 -104 28.5 -182t80 -128.5t118 -76 t144.5 -25.5q125 0 241.5 54.5t206.5 159t145.5 257t55.5 348.5q0 104 -28.5 182.5t-80 128.5t-119 75.5t-143.5 25.5q-125 0 -241.5 -54t-207.5 -158.5t-145.5 -257t-54.5 -349.5zM942 1681q0 41 26.5 76t75.5 35q47 0 69 -26.5t22 -59.5q0 -39 -28 -75t-77 -36 q-45 0 -66.5 25.5t-21.5 60.5zM1294 1681q0 41 28 76t77 35q45 0 66.5 -26.5t21.5 -59.5q0 -39 -26.5 -75t-76.5 -36q-47 0 -68.5 25.5t-21.5 60.5z" />
<glyph unicode="&#xd7;" d="M272 299l365 295l-238 313l88 72l236 -311l387 311l70 -86l-389 -309l231 -303l-88 -70l-227 299l-367 -299z" />
<glyph unicode="&#xd8;" horiz-adv-x="1531" d="M254 16l129 148q-47 68 -73.5 158t-26.5 206q0 211 69.5 382t184 291t259 184.5t296.5 64.5q92 0 175 -27.5t150 -83.5l129 148l86 -74l-137 -158q47 -68 74.5 -156.5t27.5 -205.5q0 -213 -69.5 -384t-184 -291t-260 -184.5t-295.5 -64.5q-92 0 -175 27t-150 82 l-121 -137zM430 506q0 -139 49 -232l848 963q-49 45 -112.5 66.5t-135.5 21.5q-125 0 -241.5 -54t-207.5 -158.5t-145.5 -257t-54.5 -349.5zM553 180q98 -86 248 -86q125 0 241.5 54.5t206.5 159t145.5 257t55.5 348.5q0 135 -51 232z" />
<glyph unicode="&#xd9;" horiz-adv-x="1327" d="M283 369q0 90 24 188l205 862h139l-207 -858q-10 -47 -17 -93t-7 -89q0 -61 14.5 -113.5t49 -91.5t90 -61.5t139.5 -22.5q94 0 165.5 26.5t126 83t93.5 144.5t69 211l209 864h140l-213 -884q-37 -150 -88.5 -257.5t-124 -176t-169 -101.5t-221.5 -33q-109 0 -187.5 30 t-129.5 83t-75.5 127t-24.5 162zM799 1772l108 118l299 -317l-71 -72z" />
<glyph unicode="&#xda;" horiz-adv-x="1327" d="M283 369q0 90 24 188l205 862h139l-207 -858q-10 -47 -17 -93t-7 -89q0 -61 14.5 -113.5t49 -91.5t90 -61.5t139.5 -22.5q94 0 165.5 26.5t126 83t93.5 144.5t69 211l209 864h140l-213 -884q-37 -150 -88.5 -257.5t-124 -176t-169 -101.5t-221.5 -33q-109 0 -187.5 30 t-129.5 83t-75.5 127t-24.5 162zM895 1591l340 299l78 -127l-359 -262z" />
<glyph unicode="&#xdb;" horiz-adv-x="1327" d="M283 369q0 90 24 188l205 862h139l-207 -858q-10 -47 -17 -93t-7 -89q0 -61 14.5 -113.5t49 -91.5t90 -61.5t139.5 -22.5q94 0 165.5 26.5t126 83t93.5 144.5t69 211l209 864h140l-213 -884q-37 -150 -88.5 -257.5t-124 -176t-169 -101.5t-221.5 -33q-109 0 -187.5 30 t-129.5 83t-75.5 127t-24.5 162zM764 1571l346 301l203 -301l-70 -68l-166 197l-260 -197z" />
<glyph unicode="&#xdc;" horiz-adv-x="1327" d="M283 369q0 90 24 188l205 862h139l-207 -858q-10 -47 -17 -93t-7 -89q0 -61 14.5 -113.5t49 -91.5t90 -61.5t139.5 -22.5q94 0 165.5 26.5t126 83t93.5 144.5t69 211l209 864h140l-213 -884q-37 -150 -88.5 -257.5t-124 -176t-169 -101.5t-221.5 -33q-109 0 -187.5 30 t-129.5 83t-75.5 127t-24.5 162zM815 1681q0 41 26.5 76t76.5 35q47 0 68.5 -26.5t21.5 -59.5q0 -39 -28 -75t-77 -36q-45 0 -66.5 25.5t-21.5 60.5zM1167 1681q0 41 28 76t77 35q45 0 66.5 -26.5t21.5 -59.5q0 -39 -26.5 -75t-76.5 -36q-47 0 -68.5 25.5t-21.5 60.5z" />
<glyph unicode="&#xdd;" horiz-adv-x="1136" d="M369 1419h151q41 -176 94.5 -363.5t118.5 -348.5l148 167l153 185l144 186q68 92 120 174h166l-319 -407l-371 -439l-135 -573h-139l135 573q-39 104 -75 215l-70 220l-64 214zM801 1591l340 299l78 -127l-359 -262z" />
<glyph unicode="&#xde;" horiz-adv-x="1081" d="M170 0l342 1419h139l-59 -248q43 4 79 5.5t81 1.5q250 0 373.5 -87t123.5 -286q0 -227 -182 -363.5t-545 -136.5h-141l-72 -305h-139zM410 418h141q150 0 255 28.5t171.5 80t97.5 121t31 151.5q0 137 -86 199.5t-260 62.5q-96 0 -143.5 -4t-55.5 -6z" />
<glyph unicode="&#xdf;" horiz-adv-x="1206" d="M-29 -369q51 70 87 128.5t60.5 115.5t43 115.5t35.5 128.5l241 1001q31 129 80 218t113.5 144.5t142.5 81t164 25.5q147 0 227 -72.5t80 -197.5q0 -72 -26.5 -130.5t-65.5 -107.5t-85 -89l-85 -77q-39 -37 -65.5 -70.5t-26.5 -68.5q0 -41 23.5 -69.5t58.5 -52.5l76 -49 q41 -26 75.5 -61.5t58 -88t23.5 -127.5q0 -90 -34.5 -157t-92 -110t-132.5 -64.5t-156 -21.5q-74 0 -150 15.5t-141 54.5l57 121q45 -29 108.5 -48.5t129.5 -19.5q53 0 103 12.5t89 39t62.5 67.5t23.5 98q0 61 -23.5 102.5t-58.5 72t-77 56t-76.5 55.5t-58 67t-23.5 90 q0 59 26.5 105t65.5 87t85 80t85 81t65.5 91t26.5 113q0 76 -44 117t-126 41q-59 0 -115.5 -18.5t-104.5 -59.5t-87 -105.5t-60 -154.5l-223 -926l-48 -181t-53 -155t-69 -135.5t-92 -124.5z" />
<glyph unicode="&#xe0;" horiz-adv-x="1069" d="M201 365q0 164 53 297t148.5 226t225.5 144t283 51q127 0 244 -43l-158 -637q-12 -51 -20 -96t-8 -86q0 -55 10 -104t37 -109l-137 -20q-12 25 -21.5 56.5t-13.5 64.5q-72 -70 -151 -103t-163 -33q-66 0 -125 22.5t-104 70t-72.5 122.5t-27.5 177zM336 391 q0 -84 16.5 -140t45 -90t66.5 -49.5t81 -15.5q84 0 157.5 40t139.5 114q0 55 16 127l31 129l108 438q-37 8 -67.5 12.5t-63.5 4.5q-127 0 -225 -49.5t-165.5 -129.5t-103.5 -182.5t-36 -208.5zM635 1464l108 119l299 -317l-71 -72z" />
<glyph unicode="&#xe1;" horiz-adv-x="1069" d="M201 365q0 164 53 297t148.5 226t225.5 144t283 51q127 0 244 -43l-158 -637q-12 -51 -20 -96t-8 -86q0 -55 10 -104t37 -109l-137 -20q-12 25 -21.5 56.5t-13.5 64.5q-72 -70 -151 -103t-163 -33q-66 0 -125 22.5t-104 70t-72.5 122.5t-27.5 177zM336 391 q0 -84 16.5 -140t45 -90t66.5 -49.5t81 -15.5q84 0 157.5 40t139.5 114q0 55 16 127l31 129l108 438q-37 8 -67.5 12.5t-63.5 4.5q-127 0 -225 -49.5t-165.5 -129.5t-103.5 -182.5t-36 -208.5zM768 1284l340 299l78 -127l-359 -262z" />
<glyph unicode="&#xe2;" horiz-adv-x="1069" d="M201 365q0 164 53 297t148.5 226t225.5 144t283 51q127 0 244 -43l-158 -637q-12 -51 -20 -96t-8 -86q0 -55 10 -104t37 -109l-137 -20q-12 25 -21.5 56.5t-13.5 64.5q-72 -70 -151 -103t-163 -33q-66 0 -125 22.5t-104 70t-72.5 122.5t-27.5 177zM336 391 q0 -84 16.5 -140t45 -90t66.5 -49.5t81 -15.5q84 0 157.5 40t139.5 114q0 55 16 127l31 129l108 438q-37 8 -67.5 12.5t-63.5 4.5q-127 0 -225 -49.5t-165.5 -129.5t-103.5 -182.5t-36 -208.5zM588 1262l346 301l203 -301l-70 -68l-166 197l-260 -197z" />
<glyph unicode="&#xe3;" horiz-adv-x="1069" d="M201 365q0 164 53 297t148.5 226t225.5 144t283 51q127 0 244 -43l-158 -637q-12 -51 -20 -96t-8 -86q0 -55 10 -104t37 -109l-137 -20q-12 25 -21.5 56.5t-13.5 64.5q-72 -70 -151 -103t-163 -33q-66 0 -125 22.5t-104 70t-72.5 122.5t-27.5 177zM336 391 q0 -84 16.5 -140t45 -90t66.5 -49.5t81 -15.5q84 0 157.5 40t139.5 114q0 55 16 127l31 129l108 438q-37 8 -67.5 12.5t-63.5 4.5q-127 0 -225 -49.5t-165.5 -129.5t-103.5 -182.5t-36 -208.5zM541 1319q16 29 36.5 57.5t48 51t64.5 36t88 13.5q37 0 65.5 -12.5t55.5 -28 t55.5 -27.5t65.5 -12q45 0 73.5 23.5t61.5 70.5l74 -47q-16 -29 -37 -57.5t-48.5 -50t-64.5 -35t-88 -13.5q-39 0 -67.5 12.5t-55 27.5t-54.5 27.5t-64 12.5q-45 0 -74 -23.5t-62 -70.5z" />
<glyph unicode="&#xe4;" horiz-adv-x="1069" d="M201 365q0 164 53 297t148.5 226t225.5 144t283 51q127 0 244 -43l-158 -637q-12 -51 -20 -96t-8 -86q0 -55 10 -104t37 -109l-137 -20q-12 25 -21.5 56.5t-13.5 64.5q-72 -70 -151 -103t-163 -33q-66 0 -125 22.5t-104 70t-72.5 122.5t-27.5 177zM336 391 q0 -84 16.5 -140t45 -90t66.5 -49.5t81 -15.5q84 0 157.5 40t139.5 114q0 55 16 127l31 129l108 438q-37 8 -67.5 12.5t-63.5 4.5q-127 0 -225 -49.5t-165.5 -129.5t-103.5 -182.5t-36 -208.5zM633 1366q0 41 26.5 76t75.5 35q47 0 68.5 -27t21.5 -59q0 -39 -27.5 -75 t-76.5 -36q-45 0 -66.5 25.5t-21.5 60.5zM985 1366q0 41 27.5 76t77.5 35q45 0 66.5 -27t21.5 -59q0 -39 -27 -75t-76 -36q-47 0 -68.5 25.5t-21.5 60.5z" />
<glyph unicode="&#xe5;" horiz-adv-x="1069" d="M201 365q0 164 53 297t148.5 226t225.5 144t283 51q127 0 244 -43l-158 -637q-12 -51 -20 -96t-8 -86q0 -55 10 -104t37 -109l-137 -20q-12 25 -21.5 56.5t-13.5 64.5q-72 -70 -151 -103t-163 -33q-66 0 -125 22.5t-104 70t-72.5 122.5t-27.5 177zM336 391 q0 -84 16.5 -140t45 -90t66.5 -49.5t81 -15.5q84 0 157.5 40t139.5 114q0 55 16 127l31 129l108 438q-37 8 -67.5 12.5t-63.5 4.5q-127 0 -225 -49.5t-165.5 -129.5t-103.5 -182.5t-36 -208.5zM719 1384q0 88 58.5 141.5t137.5 53.5q39 0 75 -14.5t62.5 -40t42 -61.5 t15.5 -79q0 -45 -15.5 -80.5t-42 -61t-62.5 -40t-75 -14.5q-80 0 -138 53t-58 143zM799 1384q0 -59 33.5 -89.5t83 -30.5t83 30.5t33.5 89.5q0 57 -33.5 89t-83 32t-83 -32t-33.5 -89z" />
<glyph unicode="&#xe6;" horiz-adv-x="1583" d="M111 248q0 119 46 193.5t138 117.5t230.5 62.5t322.5 27.5q0 10 1 18.5t1 16.5q0 90 -22.5 145.5t-62.5 85t-93.5 40t-112.5 10.5q-127 0 -276 -72l-15 119q61 29 149.5 50t180.5 21q152 0 237 -62.5t117 -166.5q78 115 195 172t233 57q59 0 112.5 -16t93.5 -50t63.5 -85 t23.5 -121q0 -121 -45 -194.5t-137 -116.5t-229.5 -61.5t-321.5 -24.5q0 -10 -1 -20.5t-1 -18.5q0 -90 22.5 -145.5t61.5 -84t91 -38t112 -9.5q127 0 276 72l15 -123q-61 -29 -149.5 -50.5t-180.5 -21.5q-154 0 -238 61.5t-119 166.5q-72 -102 -179 -165t-249 -63 q-59 0 -112 17.5t-93 51.5t-62.5 85t-22.5 119zM246 256q0 -78 48 -119t128 -41q61 0 124.5 24.5t119 76t97.5 132.5t64 191q-176 -4 -289.5 -21.5t-178 -50t-89 -81t-24.5 -111.5zM961 535q174 2 286.5 20t177 51t89 82t24.5 115q0 78 -48 119t-128 41q-61 0 -122.5 -25 t-117 -77t-98.5 -132.5t-63 -193.5z" />
<glyph unicode="&#xe7;" horiz-adv-x="931" d="M201 375q0 139 43 267t126 226.5t203.5 156.5t274.5 58q106 0 211 -34l-55 -121q-47 18 -93.5 25.5t-89.5 7.5q-109 0 -197.5 -46.5t-152 -125t-98.5 -182t-35 -218.5q0 -135 62.5 -213t199.5 -78q43 0 87 8.5t81 19.5t65.5 23.5t43.5 22.5l14 -121q-39 -25 -119 -48 t-178 -28l-20 -28l-15 -25q47 -27 68.5 -54.5t21.5 -76.5q0 -84 -64.5 -129t-162.5 -45q-35 0 -69 4t-74 21l36 88q45 -18 101 -19q47 0 75.5 14.5t28.5 49.5q0 31 -19.5 49t-76.5 41q12 25 32.5 56.5t43.5 60.5q-150 20 -224.5 123.5t-74.5 269.5z" />
<glyph unicode="&#xe8;" horiz-adv-x="999" d="M201 365q0 131 40 260t117.5 231t191.5 164.5t259 62.5q143 0 220 -74.5t77 -197.5q0 -115 -56.5 -186.5t-157.5 -113.5t-243.5 -60.5t-316.5 -26.5v-43q0 -59 12 -110.5t45 -89.5t91.5 -60.5t150.5 -22.5q72 0 144.5 20.5t137.5 61.5l15 -123q-70 -39 -154 -60.5 t-170 -21.5q-113 0 -189.5 29t-124.5 80t-68.5 123t-20.5 158zM352 545q174 4 293 22.5t191.5 51t103.5 78.5t31 106q0 80 -48.5 120t-125.5 40q-82 0 -154 -34t-129 -91.5t-99.5 -133t-62.5 -159.5zM612 1464l109 119l299 -317l-72 -72z" />
<glyph unicode="&#xe9;" horiz-adv-x="999" d="M201 365q0 131 40 260t117.5 231t191.5 164.5t259 62.5q143 0 220 -74.5t77 -197.5q0 -115 -56.5 -186.5t-157.5 -113.5t-243.5 -60.5t-316.5 -26.5v-43q0 -59 12 -110.5t45 -89.5t91.5 -60.5t150.5 -22.5q72 0 144.5 20.5t137.5 61.5l15 -123q-70 -39 -154 -60.5 t-170 -21.5q-113 0 -189.5 29t-124.5 80t-68.5 123t-20.5 158zM352 545q174 4 293 22.5t191.5 51t103.5 78.5t31 106q0 80 -48.5 120t-125.5 40q-82 0 -154 -34t-129 -91.5t-99.5 -133t-62.5 -159.5zM645 1284l340 299l78 -127l-358 -262z" />
<glyph unicode="&#xea;" horiz-adv-x="999" d="M201 365q0 131 40 260t117.5 231t191.5 164.5t259 62.5q143 0 220 -74.5t77 -197.5q0 -115 -56.5 -186.5t-157.5 -113.5t-243.5 -60.5t-316.5 -26.5v-43q0 -59 12 -110.5t45 -89.5t91.5 -60.5t150.5 -22.5q72 0 144.5 20.5t137.5 61.5l15 -123q-70 -39 -154 -60.5 t-170 -21.5q-113 0 -189.5 29t-124.5 80t-68.5 123t-20.5 158zM352 545q174 4 293 22.5t191.5 51t103.5 78.5t31 106q0 80 -48.5 120t-125.5 40q-82 0 -154 -34t-129 -91.5t-99.5 -133t-62.5 -159.5zM569 1262l346 301l203 -301l-69 -68l-166 197l-260 -197z" />
<glyph unicode="&#xeb;" horiz-adv-x="999" d="M201 365q0 131 40 260t117.5 231t191.5 164.5t259 62.5q143 0 220 -74.5t77 -197.5q0 -115 -56.5 -186.5t-157.5 -113.5t-243.5 -60.5t-316.5 -26.5v-43q0 -59 12 -110.5t45 -89.5t91.5 -60.5t150.5 -22.5q72 0 144.5 20.5t137.5 61.5l15 -123q-70 -39 -154 -60.5 t-170 -21.5q-113 0 -189.5 29t-124.5 80t-68.5 123t-20.5 158zM352 545q174 4 293 22.5t191.5 51t103.5 78.5t31 106q0 80 -48.5 120t-125.5 40q-82 0 -154 -34t-129 -91.5t-99.5 -133t-62.5 -159.5zM596 1366q0 41 26.5 76t75.5 35q47 0 68.5 -27t21.5 -59q0 -39 -27.5 -75 t-76.5 -36q-45 0 -66.5 25.5t-21.5 60.5zM948 1366q0 41 28 76t77 35q45 0 66.5 -27t21.5 -59q0 -39 -27 -75t-76 -36q-47 0 -68.5 25.5t-21.5 60.5z" />
<glyph unicode="&#xec;" horiz-adv-x="481" d="M170 0l256 1059h133l-256 -1059h-133zM274 1464l109 119l299 -317l-72 -72z" />
<glyph unicode="&#xed;" horiz-adv-x="481" d="M170 0l256 1059h133l-256 -1059h-133zM375 1284l340 299l78 -127l-359 -262z" />
<glyph unicode="&#xee;" horiz-adv-x="481" d="M170 0l256 1059h133l-256 -1059h-133zM262 1262l346 301l203 -301l-70 -68l-166 197l-260 -197z" />
<glyph unicode="&#xef;" horiz-adv-x="481" d="M170 0l256 1059h133l-256 -1059h-133zM285 1366q0 41 26.5 76t75.5 35q47 0 68.5 -27t21.5 -59q0 -39 -27.5 -75t-76.5 -36q-45 0 -66.5 25.5t-21.5 60.5zM637 1366q0 41 27.5 76t76.5 35q45 0 66.5 -27t21.5 -59q0 -39 -26.5 -75t-75.5 -36q-47 0 -68.5 25.5t-21.5 60.5 z" />
<glyph unicode="&#xf0;" horiz-adv-x="1150" d="M201 385q0 141 48 255t127 193.5t180 122.5t210 43q94 0 163.5 -21.5t141.5 -76.5q-2 84 -19.5 171t-54.5 171l-270 -86l-14 107l231 73q-35 51 -78 96.5t-96 82.5l111 73q59 -41 108 -93t88 -118l269 86l14 -106l-234 -74q84 -186 84 -412q0 -76 -12 -171t-41 -195 t-76 -195.5t-117.5 -170t-167 -120t-223.5 -45.5q-92 0 -161.5 31t-116.5 86t-70.5 130t-23.5 163zM340 397q0 -63 15.5 -118.5t46 -95.5t78.5 -63.5t114 -23.5q113 0 195.5 56.5t140 148.5t89.5 209t44 238q-63 70 -129 100.5t-168 30.5q-100 0 -179 -37t-134.5 -102.5 t-84 -154t-28.5 -188.5z" />
<glyph unicode="&#xf1;" horiz-adv-x="1118" d="M170 0l244 1022q80 23 170 40t178 17q74 0 139.5 -15t114.5 -54t77.5 -102.5t28.5 -157.5q0 -53 -8 -109.5t-22 -114.5l-127 -526h-134l113 471q16 68 29.5 137.5t15.5 132.5q0 63 -19.5 104.5t-53 66t-78.5 34.5t-95 10q-53 0 -108 -8t-109 -20l-223 -928h-133z M496 1319q16 29 36.5 57.5t48 51t64.5 36t88 13.5q37 0 65.5 -12.5t55.5 -28t55.5 -27.5t65.5 -12q45 0 73.5 23.5t61.5 70.5l74 -47q-16 -29 -37 -57.5t-48.5 -50t-64.5 -35t-88 -13.5q-39 0 -67.5 12.5t-55 27.5t-54.5 27.5t-64 12.5q-45 0 -74 -23.5t-62 -70.5z" />
<glyph unicode="&#xf2;" horiz-adv-x="1077" d="M201 332q0 193 54 334t139 233t188.5 137t203.5 45q72 0 136.5 -22.5t113.5 -67.5t78 -111.5t29 -152.5q0 -193 -54.5 -334t-139.5 -234t-188.5 -138.5t-203.5 -45.5q-72 0 -136.5 22.5t-113.5 68t-77.5 112t-28.5 154.5zM336 340q0 -121 67.5 -182.5t161.5 -61.5 q74 0 152 38t142.5 115t106.5 193.5t42 274.5q0 121 -68 182.5t-162 61.5q-74 0 -151.5 -38t-142 -115t-106.5 -193.5t-42 -274.5zM612 1464l109 119l299 -317l-72 -72z" />
<glyph unicode="&#xf3;" horiz-adv-x="1077" d="M201 332q0 193 54 334t139 233t188.5 137t203.5 45q72 0 136.5 -22.5t113.5 -67.5t78 -111.5t29 -152.5q0 -193 -54.5 -334t-139.5 -234t-188.5 -138.5t-203.5 -45.5q-72 0 -136.5 22.5t-113.5 68t-77.5 112t-28.5 154.5zM336 340q0 -121 67.5 -182.5t161.5 -61.5 q74 0 152 38t142.5 115t106.5 193.5t42 274.5q0 121 -68 182.5t-162 61.5q-74 0 -151.5 -38t-142 -115t-106.5 -193.5t-42 -274.5zM692 1284l340 299l78 -127l-358 -262z" />
<glyph unicode="&#xf4;" horiz-adv-x="1077" d="M201 332q0 193 54 334t139 233t188.5 137t203.5 45q72 0 136.5 -22.5t113.5 -67.5t78 -111.5t29 -152.5q0 -193 -54.5 -334t-139.5 -234t-188.5 -138.5t-203.5 -45.5q-72 0 -136.5 22.5t-113.5 68t-77.5 112t-28.5 154.5zM336 340q0 -121 67.5 -182.5t161.5 -61.5 q74 0 152 38t142.5 115t106.5 193.5t42 274.5q0 121 -68 182.5t-162 61.5q-74 0 -151.5 -38t-142 -115t-106.5 -193.5t-42 -274.5zM571 1262l347 301l202 -301l-69 -68l-166 197l-260 -197z" />
<glyph unicode="&#xf5;" horiz-adv-x="1077" d="M201 332q0 193 54 334t139 233t188.5 137t203.5 45q72 0 136.5 -22.5t113.5 -67.5t78 -111.5t29 -152.5q0 -193 -54.5 -334t-139.5 -234t-188.5 -138.5t-203.5 -45.5q-72 0 -136.5 22.5t-113.5 68t-77.5 112t-28.5 154.5zM336 340q0 -121 67.5 -182.5t161.5 -61.5 q74 0 152 38t142.5 115t106.5 193.5t42 274.5q0 121 -68 182.5t-162 61.5q-74 0 -151.5 -38t-142 -115t-106.5 -193.5t-42 -274.5zM524 1319q16 29 37 57.5t48.5 51t64.5 36t88 13.5q37 0 65.5 -12.5t55 -28t55.5 -27.5t66 -12q45 0 73.5 23.5t61.5 70.5l73 -47 q-16 -29 -36.5 -57.5t-48 -50t-64.5 -35t-88 -13.5q-39 0 -67.5 12.5t-55.5 27.5t-54.5 27.5t-64.5 12.5q-45 0 -73.5 -23.5t-61.5 -70.5z" />
<glyph unicode="&#xf6;" horiz-adv-x="1077" d="M201 332q0 193 54 334t139 233t188.5 137t203.5 45q72 0 136.5 -22.5t113.5 -67.5t78 -111.5t29 -152.5q0 -193 -54.5 -334t-139.5 -234t-188.5 -138.5t-203.5 -45.5q-72 0 -136.5 22.5t-113.5 68t-77.5 112t-28.5 154.5zM336 340q0 -121 67.5 -182.5t161.5 -61.5 q74 0 152 38t142.5 115t106.5 193.5t42 274.5q0 121 -68 182.5t-162 61.5q-74 0 -151.5 -38t-142 -115t-106.5 -193.5t-42 -274.5zM600 1366q0 41 26.5 76t75.5 35q47 0 69 -27t22 -59q0 -39 -28 -75t-77 -36q-45 0 -66.5 25.5t-21.5 60.5zM952 1366q0 41 28 76t77 35 q45 0 66.5 -27t21.5 -59q0 -39 -26.5 -75t-76.5 -36q-47 0 -68.5 25.5t-21.5 60.5z" />
<glyph unicode="&#xf7;" d="M248 545l26 114h926l-26 -114h-926zM532 215q10 45 45 73.5t76 28.5q43 0 64 -28q14 -19 13 -46q0 -13 -3 -28q-10 -43 -45 -71.5t-78 -28.5q-41 0 -61 28q-14 19 -14 45q0 13 3 27zM719 987q10 43 45 71.5t76 28.5q43 0 63 -28q14 -19 14 -45q0 -13 -4 -27 q-10 -45 -44.5 -73.5t-77.5 -28.5q-41 0 -62 28q-14 19 -14 46q1 13 4 28z" />
<glyph unicode="&#xf8;" horiz-adv-x="1077" d="M154 -4l108 123q-29 41 -45 94t-16 119q0 193 54 334t139 233t188.5 137t203.5 45q72 0 135.5 -22.5t112.5 -65.5l111 125l80 -65l-127 -144q45 -78 45 -182q0 -193 -54.5 -334t-139.5 -234t-188.5 -138.5t-203.5 -45.5q-61 0 -118.5 16.5t-104.5 51.5l-101 -115z M336 340q0 -35 5 -62.5t15 -52.5l590 668q-66 68 -168 68q-74 0 -151.5 -38t-142 -115t-106.5 -193.5t-42 -274.5zM422 141q57 -45 143 -45q74 0 152 38t142.5 115t106.5 193.5t42 274.5q0 41 -11 78z" />
<glyph unicode="&#xf9;" horiz-adv-x="1069" d="M201 272q0 59 10 126t27 134l127 527h133l-113 -467l-36 -151q-19 -79 -19 -150q0 -41 9 -76t31.5 -61.5t59.5 -41t94 -14.5q98 0 173 39t141 113q0 55 16 127l31 129l137 553h133l-162 -656q-12 -51 -20 -96t-8 -86q0 -55 10 -104t37 -109l-138 -20q-12 25 -21 56.5 t-13 64.5q-72 -70 -153 -102t-179 -32q-88 0 -147.5 22.5t-94.5 62.5t-50 94.5t-15 117.5zM502 1464l108 119l299 -317l-71 -72z" />
<glyph unicode="&#xfa;" horiz-adv-x="1069" d="M201 272q0 59 10 126t27 134l127 527h133l-113 -467l-36 -151q-19 -79 -19 -150q0 -41 9 -76t31.5 -61.5t59.5 -41t94 -14.5q98 0 173 39t141 113q0 55 16 127l31 129l137 553h133l-162 -656q-12 -51 -20 -96t-8 -86q0 -55 10 -104t37 -109l-138 -20q-12 25 -21 56.5 t-13 64.5q-72 -70 -153 -102t-179 -32q-88 0 -147.5 22.5t-94.5 62.5t-50 94.5t-15 117.5zM643 1284l340 299l78 -127l-359 -262z" />
<glyph unicode="&#xfb;" horiz-adv-x="1069" d="M201 272q0 59 10 126t27 134l127 527h133l-113 -467l-36 -151q-19 -79 -19 -150q0 -41 9 -76t31.5 -61.5t59.5 -41t94 -14.5q98 0 173 39t141 113q0 55 16 127l31 129l137 553h133l-162 -656q-12 -51 -20 -96t-8 -86q0 -55 10 -104t37 -109l-138 -20q-12 25 -21 56.5 t-13 64.5q-72 -70 -153 -102t-179 -32q-88 0 -147.5 22.5t-94.5 62.5t-50 94.5t-15 117.5zM516 1262l346 301l203 -301l-70 -68l-166 197l-260 -197z" />
<glyph unicode="&#xfc;" horiz-adv-x="1069" d="M201 272q0 59 10 126t27 134l127 527h133l-113 -467l-36 -151q-19 -79 -19 -150q0 -41 9 -76t31.5 -61.5t59.5 -41t94 -14.5q98 0 173 39t141 113q0 55 16 127l31 129l137 553h133l-162 -656q-12 -51 -20 -96t-8 -86q0 -55 10 -104t37 -109l-138 -20q-12 25 -21 56.5 t-13 64.5q-72 -70 -153 -102t-179 -32q-88 0 -147.5 22.5t-94.5 62.5t-50 94.5t-15 117.5zM551 1366q0 41 26.5 76t75.5 35q47 0 68.5 -27t21.5 -59q0 -39 -27.5 -75t-76.5 -36q-45 0 -66.5 25.5t-21.5 60.5zM903 1366q0 41 27.5 76t77.5 35q45 0 66.5 -27t21.5 -59 q0 -39 -27 -75t-76 -36q-47 0 -68.5 25.5t-21.5 60.5z" />
<glyph unicode="&#xfd;" horiz-adv-x="925" d="M-121 -348l47 110q55 -31 125 -30q104 0 204.5 57t186.5 174q-86 272 -135 553t-57 543h139q4 -98 13.5 -215t28 -244t45 -259t65.5 -257q92 145 165.5 293.5t129 279.5t91.5 236.5t52 165.5h131q-12 -43 -45 -146.5t-88 -240.5t-134 -296t-181 -310 q-158 -236 -305.5 -343.5t-307.5 -107.5q-37 0 -80 6t-90 31zM553 1284l340 299l78 -127l-359 -262z" />
<glyph unicode="&#xfe;" horiz-adv-x="1062" d="M78 -379l282 1174l54 221l131 549l139 24l-125 -530q98 25 197 24q188 0 280 -98t92 -291q0 -141 -45 -270t-132 -227.5t-213 -156.5t-287 -58q-80 0 -148 18l-90 -379h-135zM336 123q63 -18 129 -19q127 0 225 48.5t166 127t102.5 181t34.5 213.5q0 154 -67.5 224.5 t-202.5 70.5q-47 0 -95 -8.5t-100 -22.5z" />
<glyph unicode="&#xff;" horiz-adv-x="925" d="M-121 -348l47 110q55 -31 125 -30q104 0 204.5 57t186.5 174q-86 272 -135 553t-57 543h139q4 -98 13.5 -215t28 -244t45 -259t65.5 -257q92 145 165.5 293.5t129 279.5t91.5 236.5t52 165.5h131q-12 -43 -45 -146.5t-88 -240.5t-134 -296t-181 -310 q-158 -236 -305.5 -343.5t-307.5 -107.5q-37 0 -80 6t-90 31zM451 1366q0 41 26.5 76t75.5 35q47 0 68.5 -27t21.5 -59q0 -39 -27.5 -75t-76.5 -36q-45 0 -66.5 25.5t-21.5 60.5zM803 1366q0 41 27.5 76t76.5 35q45 0 66.5 -27t21.5 -59q0 -39 -26.5 -75t-75.5 -36 q-47 0 -68.5 25.5t-21.5 60.5z" />
<glyph unicode="&#x152;" horiz-adv-x="1941" d="M283 567q0 182 61.5 340t183 274.5t300 184.5t411.5 68q47 0 94 -4.5t97 -10.5h741l-27 -121h-626l-121 -493h555l-27 -119h-551l-141 -565h674l-25 -121h-768q-57 -8 -111.5 -12t-107.5 -4q-313 0 -462.5 144t-149.5 439zM430 569q0 -248 111.5 -354t347.5 -106 q51 0 103 4t106 10l282 1180q-37 4 -73.5 6t-71.5 2q-197 0 -347.5 -53.5t-251.5 -151.5t-153.5 -234.5t-52.5 -302.5z" />
<glyph unicode="&#x153;" horiz-adv-x="1732" d="M201 371q0 133 42 261t118.5 228.5t184 161.5t240.5 61q135 0 211 -57t109 -180q86 119 202.5 178t239.5 59q59 0 112.5 -17t93.5 -51t62.5 -85t22.5 -119q0 -121 -49 -194.5t-144.5 -116.5t-235.5 -62.5t-325 -27.5q0 -10 -1 -18.5t-1 -16.5q0 -90 22.5 -145.5t61.5 -84 t91.5 -38t111.5 -9.5q127 0 277 72l14 -123q-61 -29 -149.5 -50.5t-180.5 -21.5q-59 0 -115.5 11.5t-104.5 39t-84 72.5t-54 113q-86 -127 -194.5 -181.5t-221.5 -54.5q-94 0 -161.5 30t-110.5 83t-63.5 125t-20.5 158zM338 375q0 -129 53 -205t174 -76q74 0 148.5 38 t135 116t99.5 194.5t39 274.5q0 121 -57.5 182.5t-151.5 61.5q-96 0 -177 -51.5t-139.5 -134.5t-91 -188.5t-32.5 -211.5zM1106 539q174 2 289.5 20.5t184.5 51t96.5 80.5t27.5 112q0 78 -48 119t-128 41q-61 0 -125 -25t-121 -75t-103 -125.5t-69 -180.5z" />
<glyph unicode="&#x178;" horiz-adv-x="1136" d="M369 1419h151q41 -176 94.5 -363.5t118.5 -348.5l148 167l153 185l144 186q68 92 120 174h166l-319 -407l-371 -439l-135 -573h-139l135 573q-39 104 -75 215l-70 220l-64 214zM684 1681q0 41 26.5 76t75.5 35q47 0 69 -26.5t22 -59.5q0 -39 -28 -75t-77 -36 q-45 0 -66.5 25.5t-21.5 60.5zM1036 1681q0 41 28 76t77 35q45 0 66.5 -26.5t21.5 -59.5q0 -39 -26.5 -75t-76.5 -36q-47 0 -68.5 25.5t-21.5 60.5z" />
<glyph unicode="&#x2c6;" horiz-adv-x="688" d="M328 1262l346 301l203 -301l-70 -68l-166 197l-260 -197z" />
<glyph unicode="&#x2dc;" horiz-adv-x="688" d="M338 1319q16 29 36.5 57.5t48.5 51t64.5 36t87.5 13.5q37 0 66 -12.5t55.5 -28t55 -27.5t65.5 -12q45 0 74 23.5t61 70.5l74 -47q-16 -29 -36.5 -57.5t-48.5 -50t-64.5 -35t-88.5 -13.5q-39 0 -67.5 12.5t-55 27.5t-54 27.5t-64.5 12.5q-45 0 -74 -23.5t-61 -70.5z" />
<glyph unicode="&#x2013;" horiz-adv-x="1001" d="M119 567l28 117h1022l-26 -117h-1024z" />
<glyph unicode="&#x2014;" horiz-adv-x="2027" d="M119 567l28 117h2048l-30 -117h-2046z" />
<glyph unicode="&#x2018;" horiz-adv-x="483" d="M406 1090q12 61 37.5 123.5t57 120t68.5 109.5t74 95l102 -41q-37 -53 -65.5 -101t-50 -96.5t-35.5 -99.5t-23 -110h-165z" />
<glyph unicode="&#x2019;" horiz-adv-x="483" d="M383 1110q37 53 65.5 101.5t50 96.5t36 99t22.5 111h166q-12 -61 -38 -124t-57.5 -120t-68.5 -109.5t-74 -95.5z" />
<glyph unicode="&#x201a;" horiz-adv-x="464" d="M37 -211q78 106 121 199.5t63 206.5h166q-25 -117 -86 -228.5t-158 -220.5z" />
<glyph unicode="&#x201c;" horiz-adv-x="811" d="M406 1090q12 61 37.5 123.5t57 120t68.5 109.5t74 95l102 -41q-37 -53 -65.5 -101t-50 -96.5t-35.5 -99.5t-23 -110h-165zM741 1090q12 61 38 123.5t57.5 120t68.5 109.5t74 95l102 -41q-37 -53 -65.5 -101t-50 -96.5t-36 -99.5t-22.5 -110h-166z" />
<glyph unicode="&#x201d;" horiz-adv-x="811" d="M365 1110q37 53 65.5 101.5t50 96.5t35.5 99t23 111h166q-12 -61 -38 -124t-57.5 -120t-68.5 -109.5t-74 -95.5zM698 1110q37 53 66 101.5t50.5 96.5t35.5 99t22 111h166q-12 -61 -37.5 -124t-57.5 -120t-68.5 -109.5t-73.5 -95.5z" />
<glyph unicode="&#x201e;" horiz-adv-x="802" d="M37 -211q78 106 121 199.5t63 206.5h166q-25 -117 -86 -228.5t-158 -220.5zM375 -211q78 106 121 199.5t63 206.5h166q-25 -117 -86 -228.5t-158 -220.5z" />
<glyph unicode="&#x2022;" horiz-adv-x="688" d="M303 723q0 49 16.5 93t48 78t78 54.5t103.5 20.5t102 -20.5t77 -54.5t49.5 -78t17.5 -93t-17.5 -94t-49.5 -79t-77 -53.5t-102 -19.5t-103.5 19.5t-78 53.5t-48 79t-16.5 94z" />
<glyph unicode="&#x2026;" horiz-adv-x="1830" d="M160 72q0 45 30.5 85t85.5 40q53 0 78 -30t25 -69q0 -45 -31 -85t-86 -40q-53 0 -77.5 30t-24.5 69zM825 72q0 45 31 85t86 40q53 0 77.5 -30t24.5 -69q0 -45 -30.5 -85t-85.5 -40q-53 0 -78 30t-25 69zM1493 72q0 45 30.5 85t86.5 40q53 0 77.5 -30t24.5 -69 q0 -45 -30.5 -85t-86.5 -40q-53 0 -77.5 30t-24.5 69z" />
<glyph unicode="&#x2039;" horiz-adv-x="616" d="M242 582l387 432l73 -62l-303 -379l170 -380l-94 -46z" />
<glyph unicode="&#x203a;" horiz-adv-x="616" d="M221 209l303 379l-170 381l95 45l233 -434l-387 -433z" />
<glyph unicode="&#x20ac;" d="M203 485l24 109h158q16 127 49 244h-147l24 108h160q43 111 106.5 203t145.5 157.5t182.5 101.5t218.5 36q57 0 106.5 -8.5t112.5 -30.5l-59 -119q-86 39 -194 39q-86 0 -158 -28.5t-130.5 -79t-105.5 -120t-80 -151.5h494l-45 -108h-487q-35 -121 -48 -244h426l-45 -109 h-389q-2 -21 -2 -39v-36q0 -55 8.5 -111.5t37 -101.5t84 -74t149.5 -29q92 0 158.5 15.5t113.5 35.5l4 -114q-41 -16 -125 -37t-184 -21q-117 0 -192.5 38t-119.5 98.5t-61.5 135t-17.5 146.5v47q0 25 2 47h-174z" />
<glyph unicode="&#x2122;" horiz-adv-x="1452" d="M283 1337v82h528v-82h-219v-581h-90v581h-219zM866 756q2 102 9.5 200.5l14.5 185.5t16 157.5t18 119.5h75l49 -81l63 -113l70 -128l64 -124l65 124l69 128l64 113l48 81h72q8 -49 17 -119.5t16.5 -157.5t13.5 -185.5t10 -200.5h-92q-6 147 -15.5 274t-21.5 219l-57 -100 l-64 -115l-56 -107l-40 -79h-66l-40 79l-56 107l-63 115l-58 100q-12 -92 -21 -219t-16 -274h-88z" />
<glyph unicode="&#xe000;" horiz-adv-x="1060" d="M0 1060h1060v-1060h-1060v1060z" />
<glyph unicode="&#xfb01;" horiz-adv-x="1159" d="M-29 -369q51 70 87 128.5t60.5 115.5t43 115.5t35.5 128.5l254 1055q29 123 76.5 202.5t108 126.5t130.5 66.5t141 19.5q47 0 83 -5t69 -15l-41 -115q-31 10 -61.5 14.5t-69.5 4.5q-53 0 -98.5 -14.5t-83 -49.5t-68.5 -93.5t-53 -146.5l-29 -110h354l-24 -115h-359 l-176 -735l-48 -181t-53 -155t-69 -135.5t-92 -124.5zM848 0l256 1059h133l-256 -1059h-133zM1157 1368q0 53 30 81t64 28q41 0 63.5 -26t22.5 -67q0 -49 -32.5 -75.5t-65.5 -26.5q-41 0 -61.5 23.5t-20.5 62.5z" />
<glyph unicode="&#xfb02;" horiz-adv-x="1257" d="M-29 -369q51 70 87 128.5t60.5 115.5t43 115.5t35.5 128.5l254 1055q29 123 76.5 202.5t108 126.5t130.5 66.5t141 19.5q47 0 83 -5t69 -15l-41 -115q-31 10 -61.5 14.5t-69.5 4.5q-53 0 -98.5 -14.5t-83 -49.5t-68.5 -93.5t-53 -146.5l-29 -110h354l-24 -115h-359 l-176 -735l-48 -181t-53 -155t-69 -135.5t-92 -124.5zM934 256q0 49 8 103.5t23 113.5l262 1092l137 24l-254 -1067l-32 -132q-15 -62 -15 -116q0 -33 6 -60.5t24.5 -49t52.5 -37.5t87 -29l-31 -116q-150 18 -209 90.5t-59 183.5z" />
<glyph unicode="&#xfb03;" horiz-adv-x="1812" d="M-29 -369q51 70 87 128.5t60.5 115.5t43 115.5t35.5 128.5l254 1055q29 123 76.5 202.5t108 126.5t130.5 66.5t141 19.5q47 0 83 -5t69 -15l-41 -115q-31 10 -61.5 14.5t-69.5 4.5q-53 0 -98.5 -14.5t-83 -49.5t-68.5 -93.5t-53 -146.5l-29 -110h354l-24 -115h-359 l-176 -735l-48 -181t-53 -155t-69 -135.5t-92 -124.5zM625 -369q51 70 87 128.5t60.5 115.5t43 115.5t34.5 128.5l254 1055q29 123 77 202.5t108.5 126.5t130 66.5t141.5 19.5q47 0 82.5 -5t68.5 -15l-41 -115q-31 10 -61.5 14.5t-69.5 4.5q-53 0 -98 -14.5t-83 -49.5 t-68.5 -93.5t-53.5 -146.5l-29 -110h355l-25 -115h-358l-176 -735q-25 -98 -48.5 -181t-53.5 -155t-68.5 -135.5t-92.5 -124.5zM1501 0l256 1059h133l-256 -1059h-133zM1810 1368q0 53 30 81t65 28q41 0 63.5 -26t22.5 -67q0 -49 -33 -75.5t-66 -26.5q-41 0 -61.5 23.5 t-20.5 62.5z" />
<glyph unicode="&#xfb04;" horiz-adv-x="1912" d="M-29 -369q51 70 87 128.5t60.5 115.5t43 115.5t35.5 128.5l254 1055q29 123 76.5 202.5t108 126.5t130.5 66.5t141 19.5q47 0 83 -5t69 -15l-41 -115q-31 10 -61.5 14.5t-69.5 4.5q-53 0 -98.5 -14.5t-83 -49.5t-68.5 -93.5t-53 -146.5l-29 -110h354l-24 -115h-359 l-176 -735l-48 -181t-53 -155t-69 -135.5t-92 -124.5zM625 -369q51 70 87 128.5t60.5 115.5t43 115.5t34.5 128.5l254 1055q29 123 77 202.5t108.5 126.5t130 66.5t141.5 19.5q47 0 82.5 -5t68.5 -15l-41 -115q-31 10 -61.5 14.5t-69.5 4.5q-53 0 -98 -14.5t-83 -49.5 t-68.5 -93.5t-53.5 -146.5l-29 -110h355l-25 -115h-358l-176 -735q-25 -98 -48.5 -181t-53.5 -155t-68.5 -135.5t-92.5 -124.5zM1589 256q0 49 8.5 103.5t22.5 113.5l262 1092l137 24l-254 -1067l-31 -132q-15 -62 -16 -116q0 -33 6.5 -60.5t24.5 -49t52 -37.5t87 -29 l-30 -116q-150 18 -209.5 90.5t-59.5 183.5z" />
</font>
</defs>
</svg>
